вход на сайт

Имя пользователя :
Пароль :

Восстановление пароля Регистрация
Скуби-Ду 3: Тайна начинается / Scooby-Doo! The Mystery Begins (Брайан Левант, фэнтези, комедия, детектив, семейный, 2009) [BDRip 720p, Профессиональный (многоголосый, закадровый) + Оригинал + субтитры (Eng)]
Рейтинг:
(голосов: 1)



[img]{THEME}/images/logopost.png[/img]



Скуби-Ду 3: Тайна начинается / Scooby-Doo! The Mystery Begins

Cлоган:«The Greatest Mystery Is How It All Began»

Год выпуска: 2009
Страна:США, Канада
Выпущено: Cartoon Network, Warner Premiere
Жанр: фэнтези, комедия, детектив, семейный

Режиссёр: Брайан Левант
В главных ролях:Фрэнк Уэлкер, Робби Амелл, Хейли Кийоко, Кейтлин Мелтон, Nick Palatas, Кира Клавелл, Лорена Гэйл, С. Эрнст Харт, Гари Чок, Беннита Ха

Перевод: Профессиональный (многоголосый, закадровый) + Оригинал
Субтитры: English

О фильме: Посреди ночи в дом к Шэгги Роджерсу вламывается Скуби-Ду, и парень с псом быстро дружатся, утром Шегги знакомит команду своих друзей со Скуби и так образуется Корпорация «Тайна». Все

проявляют интерес к призракам и решают занятся расследованием событий, происходящих в колледже. Там уже давно ползают призраки и теперь, будучи исключенными из колледжа, команда принимается за расследование.



IMDB: рейтинг5.7/10 (1 156 votes)
КиноПоиск: рейтинг 4.6/10 (483 голосов)

MediaInfo ▼Text
General
Unique ID : 196164090849823337424657412212836980770 (0x9393D4647970A3AFA2F9CCE47666D822)
Complete name : Scooby.Doo.The.Mystery.Begins.2009.BDRip.720p.x264.mkv
Format : Matroska
Format version : Version 1
File size : 4.63 GiB
Duration : 1h 22mn
Overall bit rate mode : Variable
Overall bit rate : 8 051 Kbps
Movie name : 00000
Encoded date : UTC 2009-10-04 09:01:34
Writing application : mkvmerge v2.6.0 (Kelly watch the Stars) built on Mar 24 2009 15:23:17
Writing library : libebml v0.7.7 + libmatroska v0.8.1

Video
ID : 1
Format : AVC
Format/Info : Advanced Video Codec
Format profile : [email protected]
Format settings, CABAC : Yes
Format settings, ReFrames : 3 frames
Codec ID : V_MPEG4/ISO/AVC
Duration : 1h 22mn
Bit rate mode : Variable
Bit rate : 6 962 Kbps
Maximum bit rate : 25.0 Mbps
Width : 1 280 pixels
Height : 720 pixels
Display aspect ratio : 16:9
Frame rate : 23.976 fps
Color space : YUV
Chroma subsampling : 4:2:0
Bit depth : 8 bits
Scan type : Progressive
Bits/(Pixel*Frame) : 0.315
Stream size : 3.92 GiB (84%)
Writing library : x264 core 68 r1195M 5d75a9b
Encoding settings : cabac=1 / ref=3 / deblock=1:0:0 / analyse=0x3:0x133 / me=umh / subme=7 / psy_rd=1.0:0.0 / mixed_ref=1 / me_range=16 / chroma_me=1 / trellis=1 / 8x8dct=1 / cqm=0 / deadzone=21,11 /

chroma_qp_offset=-2 / threads=6 / nr=0 / decimate=1 / mbaff=0 / bframes=3 / b_pyramid=0 / b_adapt=1 / b_bias=0 / direct=3 / wpredb=1 / keyint=240 / keyint_min=24 / scenecut=40 / rc=2pass / bitrate=6962 /

ratetol=1.0 / qcomp=0.60 / qpmin=10 / qpmax=51 / qpstep=4 / cplxblur=20.0 / qblur=0.5 / vbv_maxrate=25000 / vbv_bufsize=25000 / ip_ratio=1.40 / pb_ratio=1.30 / aq=1:1.00
Default : Yes
Forced : No

Audio #1
ID : 2
Format : AC-3
Format/Info : Audio Coding 3
Mode extension : CM (complete main)
Codec ID : A_AC3
Duration : 1h 22mn
Bit rate mode : Constant
Bit rate : 448 Kbps
Channel(s) : 6 channels
Channel positions : Front: L C R, Side: L R, LFE
Sampling rate : 48.0 KHz
Bit depth : 16 bits
Compression mode : Lossy
Delay relative to video : 3s 500ms
Stream size : 264 MiB (6%)
Language : Russian
Default : Yes
Forced : No

Audio #2
ID : 3
Format : AC-3
Format/Info : Audio Coding 3
Mode extension : CM (complete main)
Codec ID : A_AC3
Duration : 1h 22mn
Bit rate mode : Constant
Bit rate : 640 Kbps
Channel(s) : 6 channels
Channel positions : Front: L C R, Side: L R, LFE
Sampling rate : 48.0 KHz
Bit depth : 16 bits
Compression mode : Lossy
Stream size : 377 MiB (8%)
Language : English
Default : No
Forced : No

Text
ID : 4
Format : UTF-8
Codec ID : S_TEXT/UTF8
Codec ID/Info : UTF-8 Plain Text
Language : English
Default : Yes
Forced : No



Качество: BDRip 720p
Продолжительность: 01:22:10

Формат: MKV
Видео кодек: AVC
Аудио кодек: AC3
Видео: 1280x720 (16:9), AVC, 23,976 fps, 6 962 kbps, 0.31 bit/pixel
Аудио #1: Russian: 48.0
e8b96460592604096ba11fdf6b8fce4ebc401e6cСкуби-Ду 3: Тайна начинается / Scooby-Doo! The Mystery Begins (Брайан Левант, фэнтези, комедия, детектив, семейный, 2009) [BDRip 720p, Профессиональный (многоголосый, закадровый) + Оригинал + субтитры (Eng)] Скуби-Ду 3: Тайна начинается / Scooby-Doo! The Mystery Begins (Брайан Левант, фэнтези, комедия, детектив, семейный, 2009) [BDRip 720p, Профессиональный (многоголосый, закадровый) + Оригинал + субтитры (Eng)] " />

Аплоадер: Админ, дата: 10-03-2012, 20:08, торрент скачан: 359 раз

Понравилась раздача? Посмотрите эти:
  • Скуби-Ду 3: Тайна начинается / Scooby-Doo! The Mystery Begins (Брайан Леван ...
  • Скуби-Ду 3: Тайна начинается / Scooby-Doo! The Mystery Begins (Брайан Леван ...
  • За кадром... / In a World...(Лэйк Белл, комедия, 2013) [BDRip-AVC, Професси ...
  • Посылка / The Package (Джесси Джонсон, боевик, 2013) [BDRip 720p, Профессио ...
  • Четвертый вид / The Fourth Kind (Олатунде Осунсанми, ужасы, фантастика, 200 ...
  • 42 / 42 (Брайан Хелгеленд, Драма, биография, спорт, 2013) [BDRip 720p, Проф ...
  • Скуби-Ду! Маска голубого сокола / Scooby-Doo! Mask of the Blue Falcon (Майк ...
  • Смерть на похоронах / Death at a Funeral (Нил ЛаБут, комедия, 2010) [BDRip ...
  • Отдел 13 / Diamant 13 (Гайллз Бэхат, Боевик, триллер, криминал, 2009) [BDRi ...
  • Гость / The Caller (Мэттью Паркхилл, триллер, детектив, 2011) [BDRip 720p, ...
  • Зубная фея 2 / Tooth Fairy 2 (Алекс Замм, комедия, семейный, 2012) [BDRip 7 ...
  • Убить по расписанию / Ticking Clock (Эрни Барбараш, фантастика, боевик, три ...
  • Персонаж / Stranger Than Fiction (Марк Форстер, Комедия, драма, фантастика, ...
  • Приготовление и начало / Prep And Landing (Кевин Детерс, мультфильм, коротк ...
  • Один Дома / Home Alone (Крис Коламбус, комедия, приключения, семейный, 1990 ...
  • Вся королевская рать / All the Kings Men (Стивен Зеллиан, триллер, драма, 2 ...
  • Феи: Потерянное сокровище / Tinker Bell and the Lost Treasur (Клэй Холл, му ...
  • Рыжий пес / Red Dog (Крив Стендерс, драма, комедия, семейный, 2011) [BDRip ...
  • Расплата [Режиссёрская версия] / Payback: Straight Up [Directors Cut] (Брай ...
  • Похищенная / A Lonely Place to Die (Джулиан Джилби, триллер, криминал, прик ...
  • Ворон / The Raven (Джеймс МакТиг, Триллер, детектив, 2012) [BDRip 720p, Дуб ...
  • Скуби-Ду 3: Тайна начинается / Scooby-Doo! The Mystery Begins (Брайан Леван ...
  • Скуби-Ду 3: Тайна начинается / Scooby-Doo! The Mystery Begins (Брайан Леван ...
  • Футбольные гладиаторы / Ушедшее время / Awaydays (Пэт Холден, драма, кримин ...
  • Скуби-Ду! Корпорация "Тайна" / Scooby-Doo! Mystery Incorporated // Сезон 2, ...
  • Информация
    Посетители, находящиеся в группе Гости, не могут оставлять комментарии к данной публикации.