вход на сайт

Имя пользователя :
Пароль :

Восстановление пароля Регистрация
Вся королевская рать / All the Kings Men (Стивен Зеллиан, триллер, драма, 2006) [BDRip 720p, Профессиональный (многоголосый, закадровый) + Оригинал + субтитры( Ukr, Eng, Swe)]
Рейтинг:
(голосов: 1)



[img]{THEME}/images/logopost.png[/img]



Вся королевская рать / All the Kings Men

Cлоган: «Время проливает свет на все»

Год выпуска: 2006
Страна:США, Германия
Выпущено: Columbia Pictures Corporation
Жанр:триллер, драма

Режиссёр: Стивен Зеллиан
В главных ролях:Шон Пенн, Джуд Лоу, Энтони Хопкинс, Кейт Уинслет, Марк Руффало, Патриция Кларксон, Джеймс Гандольфини, Джеки Эрл Хейли, Кэти Бэйкер, Талия Балсам

Перевод: Профессиональный (многоголосый, закадровый)+ Оригинал
Субтитры: Украинские, Английские, Шведские

О фильме:Главный герой повествования, журналист Джек Бурден, поддается обаянию политика-популиста Уилли Старка. Старк становится для него настоящим кумиром, однако по мере общения с политиком Бурден осознает, что тот далек от идеала.

Старк, на заре своей карьеры искренне желавший искоренить коррупцию в правительстве, получив полномочия сильных мира сего, сам становится таким же, как и те, с кем он раньше собирался бороться.



IMDB: рейтинг6.0/10 (14 381 votes)
КиноПоиск: рейтинг 6.6/10 (1 279 голосов)

MediaInfo ▼Text
General
Unique ID : 170567876167441301134471134062576848670 (0x80522D931F0510DF8D23D00E1AF2CF1E)
Complete name : All.The.Kings.Men.2006.720p.BluRay.Rus.Eng.mkv
Format : Matroska
Format version : Version 2
File size : 4.77 GiB
Duration : 2h 8mn
Overall bit rate : 5 337 Kbps
Movie name : All the Kings Men (2006) - Release for HDCLUB
Encoded date : UTC 2010-02-18 20:28:08
Writing application : mkvmerge v3.0.0 (Hang up your Hang-Ups) built on Dec 12 2009 15:20:35
Writing library : libebml v0.7.9 + libmatroska v0.8.1

Video
ID : 1
Format : AVC
Format/Info : Advanced Video Codec
Format profile : [email protected]
Format settings, CABAC : Yes
Format settings, ReFrames : 8 frames
Codec ID : V_MPEG4/ISO/AVC
Duration : 2h 8mn
Bit rate : 4 131 Kbps
Width : 1 280 pixels
Height : 692 pixels
Display aspect ratio : 1.850
Frame rate : 23.976 fps
Color space : YUV
Chroma subsampling : 4:2:0
Bit depth : 8 bits
Scan type : Progressive
Bits/(Pixel*Frame) : 0.195
Stream size : 3.60 GiB (75%)
Title : Release for HDCLUB
Writing library : x264 core 55 svn-656M
Encoding settings : cabac=1 / ref=5 / deblock=1:-3:-3 / analyse=0x3:0x133 / me=hex / subme=7 / brdo=1 / mixed_ref=1 / me_range=16 / chroma_me=1 / trellis=1 / 8x8dct=1 / cqm=2 / deadzone=21,11 / chroma_qp_offset=0 / threads=3 / nr=0 / decimate=1 / mbaff=0 / bframes=3 / b_pyramid=1 / b_adapt=1 / b_bias=0 / direct=3 / wpredb=1 / bime=1 / keyint=250 / keyint_min=25 / scenecut=40(pre) / rc=2pass / bitrate=4131 / ratetol=1.0 / rceq=blurCplx^(1-qComp) / qcomp=0.60 / qpmin=10 / qpmax=51 / qpstep=4 / cplxblur=20.0 / qblur=0.5 / ip_ratio=1.40 / pb_ratio=1.30
Language : English
Default : Yes
Forced : No

Audio #1
ID : 2
Format : AC-3
Format/Info : Audio Coding 3
Mode extension : CM (complete main)
Codec ID : A_AC3
Duration : 2h 8mn
Bit rate mode : Constant
Bit rate : 448 Kbps
Channel(s) : 6 channels
Channel positions : Front: L C R, Side: L R, LFE
Sampling rate : 48.0 KHz
Bit depth : 16 bits
Compression mode : Lossy
Stream size : 410 MiB (8%)
Title : AC3 5.1 @ 448 kbps - Многоголосый закадровый
Language : Russian
Default : Yes
Forced : No

Audio #2
ID : 3
Format : DTS
Format/Info : Digital Theater Systems
Codec ID : A_DTS
Duration : 2h 8mn
Bit rate mode : Constant
Bit rate : 754 Kbps
Channel(s) : 6 channels
Channel positions : Front: L C R, Side: L R, LFE
Sampling rate : 48.0 KHz
Bit depth : 24 bits
Compression mode : Lossy
Stream size : 691 MiB (14%)
Title : DTS 5.1 @ 768 kbps
Language : English
Default : No
Forced : No

Text #1
ID : 4
Format : UTF-8
Codec ID : S_TEXT/UTF8
Codec ID/Info : UTF-8 Plain Text
Language : Ukrainian
Default : No
Forced : No

Text #2
ID : 5
Format : ASS
Codec ID : S_TEXT/ASS
Codec ID/Info : Advanced Sub Station Alpha
Compression mode : Lossless
Language : English
Default : No
Forced : No

Text #3
ID : 6
F
3d3e119345437fad28413276061e8d6cb272aa25Вся королевская рать / All the Kings Men (Стивен Зеллиан, триллер, драма, 2006) [BDRip 720p, Профессиональный (многоголосый, закадровый) + Оригинал + субтитры( Ukr, Eng, Swe)] Вся королевская рать / All the Kings Men (Стивен Зеллиан, триллер, драма, 2006) [BDRip 720p, Профессиональный (многоголосый, закадровый) + Оригинал + субтитры( Ukr, Eng, Swe)] " />

Аплоадер: Админ, дата: 10-03-2012, 08:47, торрент скачан: 359 раз

Понравилась раздача? Посмотрите эти:
  • Сезон убийц / Killing Season (Марк Стивен Джонсон, триллер, драма, боевик, ...
  • Погнали! / Getaway (Кортни Соломон, боевик, криминал, 2013) [BDRip 720p, Пр ...
  • 42 / 42 (Брайан Хелгеленд, Драма, биография, спорт, 2013) [BDRip 720p, Проф ...
  • Вся королевская рать / All the Kings Men (Стивен Зеллиан / Steven Zaillian, ...
  • Смерть на похоронах / Death at a Funeral (Нил ЛаБут, комедия, 2010) [BDRip ...
  • Гость / The Caller (Мэттью Паркхилл, триллер, детектив, 2011) [BDRip 720p, ...
  • Бессмертные души / Soul Survivors (Стивен Карпентер, ужасы, триллер, драма, ...
  • Цель Номер Один / Zero Dark Thirty (Кэтрин Бигелоу, Триллер, драма, история ...
  • Водитель / The Driver (Уолтер Хилл, Боевик, триллер, драма, криминал, 1978) ...
  • Суррогат / The Sessions (Бен Луин, драма, 2012) [BDRip 720p, Профессиональн ...
  • Зубная фея 2 / Tooth Fairy 2 (Алекс Замм, комедия, семейный, 2012) [BDRip 7 ...
  • Убить по расписанию / Ticking Clock (Эрни Барбараш, фантастика, боевик, три ...
  • Шелуха / Husk (Бретт Симмонс, ужасы, триллер, 2011) [BDRip 720p, Профессион ...
  • Вся королевская рать / All the Kings Men (Стивен Зэйллян, драма, триллер, 2 ...
  • Персонаж / Stranger Than Fiction (Марк Форстер, Комедия, драма, фантастика, ...
  • Вся королевская рать / All the Kings Men (Стивен Зэйллян, триллер, драма, ...
  • Король говорит! / The Kings Speech (Том Хупер, драма, биография, история, 2 ...
  • Один Дома / Home Alone (Крис Коламбус, комедия, приключения, семейный, 1990 ...
  • Выжить / Alive (Фрэнк Маршалл, триллер, драма, приключения, история, 1992) ...
  • Скуби-Ду 3: Тайна начинается / Scooby-Doo! The Mystery Begins (Брайан Леван ...
  • Рыжий пес / Red Dog (Крив Стендерс, драма, комедия, семейный, 2011) [BDRip ...
  • Расплата [Режиссёрская версия] / Payback: Straight Up [Directors Cut] (Брай ...
  • Похищенная / A Lonely Place to Die (Джулиан Джилби, триллер, криминал, прик ...
  • Ворон / The Raven (Джеймс МакТиг, Триллер, детектив, 2012) [BDRip 720p, Дуб ...
  • Семь футов / Seven Below (Кевин Каррауэй, Ужасы, триллер, 2012) [BDRip 720p ...
  • Информация
    Посетители, находящиеся в группе Гости, не могут оставлять комментарии к данной публикации.