вход на сайт

Имя пользователя :
Пароль :

Восстановление пароля Регистрация
Пеликан / Nicostratos le pelican (Оливье Орле, драма, комедия, семейный, 2011) [BDRip 720p, Профессиональный (полный дубляж) + оригинал (French) + субтитры( Rus, Ukr)]
Рейтинг:
(голосов: 1)



[img]{THEME}/images/logopost.png[/img]



Пеликан / Nicostratos le pelican

Cлоган: «Удивительная история дружбы»

Год выпуска: 2011
Страна: Франция, Греция
Выпущено: Canal+ [fr], Black Orange, Nexus Factory, FIVE2ONE Productions
Жанр: драма, комедия, семейный

Режиссёр: Оливье Орле
В главных ролях: Эмир Кустурица, Тибо Ле Геллек, Джейд-Роуз Паркер, Франсуа-Ксавье Демезон, Геннадиос Пацис, Валериан де Вилленьюв, Ивис Нэдот, Нтинос Понтикопоулос, Димитрис Сарикизоуглоу, Сократис Пацикас

Перевод: Профессиональный (дубляж) + оригинал(Французский)
Субтитры: Russian (R5), Ukrainian (R5)

О фильме:После смерти жены мужчина отказывается выходить на улицу и не хочет общаться с единственным сыном. Жизнь теряет смысл, перестает для него существовать. Однажды мальчик находит птенца пеликана, которого решает оставить у себя. Он выкармливает птицу, и между ними завязываются теплые дружеские отношения. Пеликан помогает мальчику вновь обрести своего отца и возродить его к жизни.



IMDB: рейтинг6.8/10 (159 votes)
КиноПоиск: рейтинг 7.6/10 (1 527 голосов)

MediaInfo ▼Text
General
Unique ID : 247706412214832766051411072657922394741 (0xBA5A850919FA24E39AB66E7A34030A75)
Complete name : Nicostratos_Le_Pelican.2011.720p.BluRay.Rus.Fre.mkv
Format : Matroska
Format version : Version 2
File size : 5.69 GiB
Duration : 1h 31mn
Overall bit rate : 8 863 Kbps
Movie name : Nicostratos le pelican (2011) - Release for HDCLUB
Encoded date : UTC 2012-03-07 05:52:15
Writing application : mkvmerge v5.3.0 (I could have danced) built on Mar 5 2012 16:04:53
Writing library : libebml v1.2.3 + libmatroska v1.3.0

Video
ID : 1
Format : AVC
Format/Info : Advanced Video Codec
Format profile : [email protected]
Format settings, CABAC : Yes
Format settings, ReFrames : 12 frames
Codec ID : V_MPEG4/ISO/AVC
Duration : 1h 31mn
Bit rate : 7 002 Kbps
Width : 1 280 pixels
Height : 544 pixels
Display aspect ratio : 2.35:1
Frame rate : 24.000 fps
Color space : YUV
Chroma subsampling : 4:2:0
Bit depth : 8 bits
Scan type : Progressive
Bits/(Pixel*Frame) : 0.419
Stream size : 4.36 GiB (77%)
Title : Release for HDCLUB
Writing library : x264 core 120 r2164 da19765
Encoding settings : cabac=1 / ref=12 / deblock=1:-3:-3 / analyse=0x3:0x133 / me=umh / subme=10 / psy=1 / psy_rd=1.05:0.00 / mixed_ref=1 / me_range=48 / chroma_me=1 / trellis=2 / 8x8dct=1 / cqm=0 / deadzone=21,11 / fast_pskip=1 / chroma_qp_offset=-2 / threads=12 / sliced_threads=0 / nr=0 / decimate=0 / interlaced=0 / bluray_compat=0 / constrained_intra=0 / bframes=9 / b_pyramid=2 / b_adapt=2 / b_bias=0 / direct=3 / weightb=1 / open_gop=0 / weightp=2 / keyint=250 / keyint_min=23 / scenecut=40 / intra_refresh=0 / rc_lookahead=60 / rc=2pass / mbtree=0 / bitrate=7002 / ratetol=1.0 / qcomp=0.70 / qpmin=0 / qpmax=69 / qpstep=4 / cplxblur=20.0 / qblur=0.5 / vbv_maxrate=50000 / vbv_bufsize=50000 / nal_hrd=none / ip_ratio=1.40 / pb_ratio=1.30 / aq=1:1.00
Language : French
Default : Yes
Forced : No

Audio #1
ID : 2
Format : AC-3
Format/Info : Audio Coding 3
Mode extension : CM (complete main)
Codec ID : A_AC3
Duration : 1h 31mn
Bit rate mode : Constant
Bit rate : 384 Kbps
Channel(s) : 6 channels
Channel positions : Front: L C R, Side: L R, LFE
Sampling rate : 48.0 KHz
Bit depth : 16 bits
Compression mode : Lossy
Stream size : 253 MiB (4%)
Title : Dub AC3 5.1 384 kbps
Language : Russian
Default : Yes
Forced : No

Audio #2
ID : 3
Format : DTS
Format/Info : Digital Theater Systems
Codec ID : A_DTS
Duration : 1h 31mn
Bit rate mode : Constant
Bit rate : 1 510 Kbps
Channel(s) : 6 channels
Channel positions : Front: L C R, Side: L R, LFE
Sampling rate : 48.0 KHz
Bit depth : 16 bits
Compression mode : Lossy
Stream size : 993 MiB (17%)
Title : DTS 5.1 1536 kbps
Language : French
Default : No
Forced : No

Text #1
ID : 4
Format : UTF-8
Codec ID : S_TEXT/UTF8
Codec ID/Info : UTF-8 Plain Text
Language : Russian
Default : No
Forced : No

Text #2
ID : 5
Format : UTF-8
Codec
67a190c07a4c1ab3d0527f2f4f204c9c9911baabПеликан / Nicostratos le pelican (Оливье Орле, драма, комедия, семейный, 2011) [BDRip 720p, Профессиональный (полный дубляж) + оригинал (French) + субтитры( Rus, Ukr)] Пеликан / Nicostratos le pelican (Оливье Орле, драма, комедия, семейный, 2011) [BDRip 720p, Профессиональный (полный дубляж) + оригинал (French) + субтитры( Rus, Ukr)] " />

Аплоадер: Админ, дата: 8-03-2012, 20:18, торрент скачан: 359 раз

Понравилась раздача? Посмотрите эти:
  • Пеликан / Nicostratos le pelican (Оливье Орле, драма, комедия, 2011) [BDRip ...
  • Пеликан / Nicostratos le pelican (Оливье Орле, драма, комедия, 2011) [BDRip ...
  • Пеликан / Nicostratos le pelican (Оливье Орле, драма, комедия, 2011) [HDRip ...
  • Суррогат / The Sessions (Бен Луин, драма, 2012) [BDRip 720p, Профессиональн ...
  • Зубная фея 2 / Tooth Fairy 2 (Алекс Замм, комедия, семейный, 2012) [BDRip 7 ...
  • Пеликан / Nicostratos le pelican (Оливье Орле, драма, комедия, 2011) [HDRip ...
  • Пеликан / Nicostratos le pelican (Оливье Орле, драма, комедия, 2011) [BDRip ...
  • Бобер / The Beaver (Джоди Фостер, драма, 2011) [BDRip 720p, Дубляж + Оригин ...
  • Дети шпионов 4D / Spy Kids: All the Time in the World in 4D (Роберт Родриге ...
  • Конан-варвар / Conan the Barbarian (Маркус Ниспел, фэнтези, боевик, приключ ...
  • Рыжий пес / Red Dog (Крив Стендерс, драма, комедия, семейный, 2011) [BDRip ...
  • «Старый» Новый год / New Years Eve (Гэрри Маршалл, мелодрама, комедия, 2011 ...
  • Проект X: Дорвались / Project X (Нима Нуризаде, комедия, 2012) [BDRip 720p, ...
  • Джок / Jock (Дункан МакНили, мультфильм, комедия, приключения, семейный, 20 ...
  • «Весёлые» каникулы / Get the Gringo (Адриан Грюнберг, Боевик, комедия, 2012 ...
  • Ворон / The Raven (Джеймс МакТиг, Триллер, детектив, 2012) [BDRip 720p, Дуб ...
  • Супер Майк / Magic Mike (Стивен Содерберг, Драма, комедия, 2012) [BDRip 720 ...
  • Пеликан / Nicostratos le pelican (Оливье Орле, драма, комедия, 2011) [DVDR5 ...
  • Пеликан / Nicostratos le pelican (Оливье Орле, драма, комедия, 2011) [HDRi ...
  • Пеликан / Nicostratos le pelican (Оливье Орле, Комедия, драма, семейный, 20 ...
  • Информация
    Посетители, находящиеся в группе Гости, не могут оставлять комментарии к данной публикации.