вход на сайт

Имя пользователя :
Пароль :

Восстановление пароля Регистрация
Отряд особого назначения / Forces speciales ( Стефан Рибожа, боевик, драма, приключения, 2011) [BDRip 720p, Профессиональный (полное дублирование) + Оригинал + Sub]
Рейтинг:
(голосов: 1)



[img]{THEME}/images/logopost.png[/img]



Отряд особого назначения / Forces speciales

Год выпуска: 2011
Страна: Фанция
Производство: A Plus Image 2 / Canal+ [fr]
Жанр: боевик, драма, приключения

Режиссёр: Стефан Рибожа
В ролях: Дайан Крюгер, Джимон Хунсу, Бенуа Мажимель, Дэнис Меночет, Рафаэль Персонас, Ален Фиглаж, Ален Аливон, Мехди Неббу, Раз Деган, Чеки Карио

Перевод: Профессиональный (полное дублирование) + Оригинал [French]
Субтитры: English

Описание: Молодая французская журналистка похищена в Афганистане талибами. Правительство Франции отказывается выполнять условия похитителей. Тогда талибы размещают в Интернете жестокое видео с обратным отсчетом времени до ее казни. На выручку девушке отправляется элитный отряд французского спецназа. Но мало отбить жертву у бандитов, нужно еще вывести ее на Большую землю. Возвращение домой становится крестным путем и для гражданской журналистки, и для бывалых вояк-спецназовцев.



Качество: BDRip 720p
Продолжительность: 01:48:46 час.

Формат: MKV
Видео кодек: AVC
Аудио кодек: AC3,DTS
Видео: 1280x534 (2,35:1), 23,976 fps, AVC 6010 Кбит/сек, 0.367 bit/pixel
Аудио#1: 48 kHz, AC3 Dolby Digital, 3/2 (L,C,R,l,r) + LFE ch, ~384 kbps - Профессиональный (полное дублирование)
Аудио#2: 48 kHz, DTS, 3/2 (L,C,R,l,r) + LFE ch, 1510 kbps - Оригинал [French]

Дата премьеры (мир): 2 ноября 2011
Дата премьеры (РФ): 3 ноября 2011, «Top Film Distribution»

MediaInfo ▼Общее
Complete name : D:Новая папкаOtrjad.osobogo.naznachenija.2011.D.BDRip.720p.[uniongang.tv].mkv
Format : Matroska
File size : 4,66 Гбайт
Duration : 1 ч. 48 м.
Overall bit rate : 6130 Кбит/сек
Movie name : Otrjad.osobogo.naznachenija.2011.D.BDRip.720p.[uniongang.tv].mkv
Encoded date : UTC 2012-03-06 21:02:56
Writing application : mkvmerge v5.2.0 (I cant explain) built on Dec 18 2011 18:12:03
Writing library : libebml v1.2.3 + libmatroska v1.3.0

Видео
ID : 1
Format : AVC
Format/Info : Advanced Video Codec
Format profile : [email protected]
Format settings, CABAC : Да
Format settings, ReFrames : 5 кадры
Format settings, GOP : M=4, N=24
Codec ID : V_MPEG4/ISO/AVC
Duration : 1 ч. 48 м.
Bit rate : 4235 Кбит/сек
Width : 1280 пикс.
Height : 536 пикс.
Display aspect ratio : 2,35:1
Frame rate : 24,000 кадр/сек
Color space : YUV
Chroma subsampling : 4:2:0
Bit depth : 8 бит
Scan type : Прогрессивная
Bits/(Pixel*Frame) : 0.257
Stream size : 3,13 Гбайт (67%)
Writing library : x264 core 120 r2164 da19765
Encoding settings : cabac=1 / ref=5 / deblock=1:0:0 / analyse=0x3:0x113 / me=umh / subme=7 / psy=1 / psy_rd=1.00:0.00 / mixed_ref=1 / me_range=16 / chroma_me=1 / trellis=1 / 8x8dct=1 / cqm=0 / deadzone=21,11 / fast_pskip=0 / chroma_qp_offset=-2 / threads=18 / sliced_threads=0 / nr=0 / decimate=1 / interlaced=0 / bluray_compat=0 / constrained_intra=0 / bframes=3 / b_pyramid=2 / b_adapt=1 / b_bias=0 / direct=1 / weightb=1 / open_gop=0 / weightp=2 / keyint=250 / keyint_min=24 / scenecut=40 / intra_refresh=0 / rc_lookahead=40 / rc=2pass / mbtree=1 / bitrate=4235 / ratetol=1.0 / qcomp=0.60 / qpmin=0 / qpmax=69 / qpstep=4 / cplxblur=20.0 / qblur=0.5 / ip_ratio=1.40 / aq=1:1.00
Language : English

Аудио #1
ID : 2
Format : AC-3
Format/Info : Audio Coding 3
Mode extension : CM (complete main)
Codec ID : A_AC3
Duration : 1 ч. 48 м.
Bit rate mode : Постоянный
Bit rate : 384 Кбит/сек
Channel(s) : 6 канала(ов)
Channel positions : Front: L C R, Side: L R, LFE
Sampling rate : 48,0 КГц
Bit depth : 16 бит
Compression mode : С потерями
Stream size : 299 Мбайт (6%)
Language : Russian

Аудио #2
ID : 3
Format : DTS
Format/Info : Digital Theater Systems
Codec ID : A_DTS
Duration : 1 ч. 48 м.
Bit rate mode : Постоянный
Bit rate : 1510 Кбит/сек
Channel(s) : 6 канала(ов)
Channel positions : Front: L C R, Side: L R, LFE
Sampling rate : 48,0 КГц
Bit depth : 24 бит
Compression mode : С потерями
Stream s
4a47f4ac8f7250a3b7a8aed2ef92c4f8160c6a37Отряд особого назначения / Forces speciales ( Стефан Рибожа, боевик, драма, приключения, 2011) [BDRip 720p, Профессиональный (полное дублирование) + Оригинал + Sub] Отряд особого назначения / Forces speciales ( Стефан Рибожа, боевик, драма, приключения, 2011) [BDRip 720p, Профессиональный (полное дублирование) + Оригинал + Sub] " />

Аплоадер: Админ, дата: 7-03-2012, 09:39, торрент скачан: 359 раз

Понравилась раздача? Посмотрите эти:
  • Отряд особого назначения / Forces speciale (Стефан Рибожад, боевик, драма, ...
  • Жизнь Пи / Life Of Pi (Энг Ли, Драма, приключения, 2012) [BDRip 720p, Профе ...
  • Жизнь Пи / Life Of Pi (Энг Ли, Драма, приключения, 2012) [BDRip 1080p, Проф ...
  • Отряд особого назначения / Forces spéciales (Стефан Рибожад, боевик, драма, ...
  • Голодный кролик атакует / Seeking Justice (Роджер Дональдсон / Roger Donald ...
  • Хранитель времени / Hugo (Мартин Скорсезе, Драма, 2011) [BDRip-AVC, Професс ...
  • Отряд особого назначения / Forces speciales ( Стефан Рибожа, боевик, драма, ...
  • Отряд особого назначения / Forces spéciales (Стефан Рибожа, Боевик, 2011) [ ...
  • Отряд особого назначения / Forces spéciales (Стефан Рибожа, Боевик, 2011) [ ...
  • Отряд особого назначения / Forces speciales ( Стефан Рибожа, боевик, драма, ...
  • Отряд особого назначения / Forces speciales (Стефан Рибожа, боевик, драма, ...
  • Отряд особого назначения / Special forces / Forces speciales (Стефан Рибожа ...
  • Ларри Краун / Larry Crowne (Том Хэнкс, драма, мелодрама, комедия, 2011) [BD ...
  • Погоня / Abduction (Джон Синглтон, боевик, триллер, драма, детектив,2011) [ ...
  • Домашняя работа / The Art of Getting By (Гэвин Вьесен, драма, мелодрама, 20 ...
  • Значит, война / This Means War (МакДжи, боевик, мелодрама, комедия, 2012) [ ...
  • «Весёлые» каникулы / Get the Gringo (Адриан Грюнберг, Боевик, комедия, 2012 ...
  • Ворон / The Raven (Джеймс МакТиг, Триллер, детектив, 2012) [BDRip 720p, Дуб ...
  • Mylene Farmer / Du Temps [2011, Pop, HDTVRip]
  • Mylene Farmer / Bleu Noir [2011, Pop, HDTVRip]
  • Отряд особого назначения / Forces speciales ( Стефан Рибожа, боевик, драма, ...
  • Отряд особого назначения / Forces speciales (Стефан Рибожа, боевик, драма, ...
  • [iPhone, iPod, iPad]Отряд особого назначения / Forces speciales (Стефан Риб ...
  • Отряд особого назначения / Forces speciales (Стефан Рибожа, боевик, 2011) [ ...
  • Отряд особого назначения / Forces speciales ( Стефан Рибожа, боевик, драма, ...
  • Информация
    Посетители, находящиеся в группе Гости, не могут оставлять комментарии к данной публикации.