вход на сайт

Имя пользователя :
Пароль :

Восстановление пароля Регистрация
Схватка / Heat (Майкл Манн, боевик, триллер, драма, криминал, 1995) [BDRip 720р, Профессиональный (многоголосый, закадровый), оригинал, субтитры]
Рейтинг:
(голосов: 1)



[img]{THEME}/images/logopost.png[/img]



Схватка / Heat
«A Los Angeles crime saga.»

Год выпуска: 1995
Страна: США
Производство: Art Linson Productions, Forward Pass, Monarchy Enterprises B.V., Regency Enterprises, Warner Bros. Pictures
Жанр: боевик, триллер, драма, криминал
Режиссёр: Майкл Манн
В ролях: Аль Пачино, Роберт Де Ниро, Вэл Килмер, Том Сайзмор, Джон Войт, Натали Портман, Эшли Джадд
Перевод: Профессиональный (многоголосый, закадровый) с лицензии Twister, оригинал
Субтитры: Русские (с лицензии Twister), русские (с лицензии Gemini), английские, английские (для слабослышащих), датские, голландские, финские, французские, немецкие, норвежские, испанские, шведские
Описание:
Нил МакКоли — преступник. Один из лучших, если можно так сказать о преступнике, в Лос-Анджелесе, а быть может, и во всей Америке. И работать с ним вместе почитают за честь супер-профессионалы криминального мира. Но против него выступает Винсент Ханна. Детектив. Один из лучших в Лос-Анджелесе, а быть может, и во всей Америке. У Винсента и Нила очень много общего. Вероятно, общего у них даже больше, чем отличий. Однако они все же стоят по разные стороны закона. Две сильнейшие команды сошлись друг против друга. Только речь идет не о спортивном состязании, а о схватке не на жизнь, а на смерть…

Качество: BDRip 720р
Продолжительность: 02:50:27
Формат: MKV
Видео кодек: AVC
Аудио кодек: AC3
Формат видео: 1280x534p, (2.35:1), 23.976 fps, 4 684 Kbps (4 796 Kbps), 0.286 bit/pixel
Формат аудио:
Аудио1: Русский AC3 5.1, 48 KHz, 384 Kbps профессиональный (многоголосый, закадровый) с лицензии Twister
Аудио2: Английский AC3 5.1, 48 KHz, 640 Kbps

MediaInfo ▼
Text
General
Complete name : Heat.1995.BD.Rip.720p.h264.Rus.Eng.mkv
Format : Matroska
File size : 6.93 GiB
Duration : 2h 50mn
Overall bit rate : 5 824 Kbps
Encoded date : UTC 2009-11-02 20:08:19
Writing application : mkvmerge v2.9.8 (Cest le bon) built on Aug 13 2009 12:49:06
Writing library : libebml v0.7.7 + libmatroska v0.8.1
Cover : Yes / Yes

Video
ID : 1
Format : AVC
Format/Info : Advanced Video Codec
Format profile : [email protected]
Format settings, CABAC : Yes
Format settings, ReFrames : 9 frames
Muxing mode : Container [email protected]
Codec ID : V_MPEG4/ISO/AVC
Duration : 2h 50mn
Bit rate : 4 684 Kbps
Nominal bit rate : 4 796 Kbps
Width : 1 280 pixels
Height : 534 pixels
Display aspect ratio : 2.35:1
Frame rate : 23.976 fps
Resolution : 24 bits
Colorimetry : 4:2:0
Scan type : Progressive
Bits/(Pixel*Frame) : 0.286
Stream size : 5.57 GiB (80%)
Writing library : x264 core 78 r1301M bcba15d
Encoding settings : cabac=1 / ref=9 / deblock=1:-3:-3 / analyse=0x3:0x113 / me=umh / subme=9 / psy=1 / psy_rd=0.8:0.0 / mixed_ref=1 / me_range=48 / chroma_me=1 / trellis=2 / 8x8dct=1 / cqm=0 / deadzone=21,11 / chroma_qp_offset=-2 / threads=6 / nr=0 / decimate=0 / mbaff=0 / constrained_intra=0 / bframes=6 / b_pyramid=0 / b_adapt=2 / b_bias=0 / direct=3 / wpredb=1 / keyint=250 / keyint_min=25 / scenecut=40 / rc_lookahead=40 / rc=2pass / mbtree=1 / bitrate=4796 / ratetol=1.0 / qcomp=0.60 / qpmin=10 / qpmax=51 / qpstep=4 / cplxblur=20.0 / qblur=0.5 / ip_ratio=1.40 / aq=1:0.50
Language : English

Audio #1
ID : 2
Format : AC-3
Format/Info : Audio Coding 3
Codec ID : A_AC3
Duration : 2h 50mn
Bit rate mode : Constant
Bit rate : 384 Kbps
Channel(s) : 6 channels
Channel positions : Front: L C R, Surround: L R, LFE
Sampling rate : 48.0 KHz
Stream size : 468 MiB (7%)
Title : Mnogogoloska Twister AC3 5.1 384 kbps
Language : Russian

Audio #2
ID : 3
Format : AC-3
Format/Info : Audio Coding 3
Codec ID : A_AC3
Duration : 2h 50mn
Bit rate mode : Constant
Bit rate : 640 Kbps
Channel(s) : 6 channels
Channel p
67b1cb53d5a3a7c339d7f64342cfb632fe4cb493Схватка / Heat (Майкл Манн, боевик, триллер, драма, криминал, 1995) [BDRip 720р, Профессиональный (многоголосый, закадровый), оригинал, субтитры] Схватка / Heat (Майкл Манн, боевик, триллер, драма, криминал, 1995) [BDRip 720р, Профессиональный (многоголосый, закадровый), оригинал, субтитры] " />

Аплоадер: Админ, дата: 24-02-2012, 10:22, торрент скачан: 359 раз

Понравилась раздача? Посмотрите эти:
  • Погнали! / Getaway (Кортни Соломон, боевик, криминал, 2013) [BDRip 720p, Пр ...
  • Схватка / Heat (Майкл Манн, Боевик, триллер, драма, криминал, 1995) [BDRip, ...
  • Схватка / Heat (Майкл Манн, Боевик, триллер, драма, криминал, 1995) [BDRip- ...
  • Верное дельце / Une pure affaire (Александр Коффре, Боевик, Комедия, Кримин ...
  • Соучастник / Collateral (Майкл Манн, Триллер, драма, криминал, 2004) [BDRip ...
  • Схватка / Heat (Майкл Манн, боевик, триллер, драма, криминал, 1995) [BDRip- ...
  • Отдел 13 / Diamant 13 (Гайллз Бэхат, Боевик, триллер, криминал, 2009) [BDRi ...
  • Честь дракона / Tom yum goong (Прачья Пинкаю, боевик, триллер, драма, крим ...
  • Водитель / The Driver (Уолтер Хилл, Боевик, триллер, драма, криминал, 1978) ...
  • Убить по расписанию / Ticking Clock (Эрни Барбараш, фантастика, боевик, три ...
  • Схватка / Heat (Майкл Манн, боевик, триллер, драма, криминал, 1995) [Правил ...
  • Схватка / Heat (Майкл Манн, триллер / драма / криминал, 1995) [BDRip, профе ...
  • Схватка / Heat (Майкл Манн, Триллер, драма, криминал, 1995) [HDRip, Професс ...
  • Схватка / Heat (Майкл Манн, Триллер, 1995) [BDRip - AVC, Авторский (Гоблин) ...
  • Али / Ali (Майкл Манн, драма, биография, спорт, 2001) [BDRip-AVC, Профессио ...
  • Дитя человеческое / Children of Men (Альфонсо Куарон, фантастика, триллер, ...
  • Джона Хекс / Jonah Hex (Джимми Хейуорд, боевик, триллер, драма, вестерн, 20 ...
  • Секреты Лос-Анжелеса / L.A. Confidential (Кертис Хэнсон, триллер, драма, кр ...
  • Повторяющие / Repeaters (Карл Бессай, фантастика, боевик, триллер, драма, к ...
  • Роб Рой / Rob Roy (Майкл Кейтон-Джонс, боевик, драма, мелодрама, 1995) [BDR ...
  • Схватка / Heat (Майкл Манн, Боевик, детектив, драма, криминал, 1995) [BDRip ...
  • Зелёная миля / The Green Mile (Фрэнк Дарабонт , драма, 1999) [BDRip 1080p, ...
  • Схватка / Heat (Майкл Манн, триллер, драма, криминал, 1995) [BDRip-AVC, Мно ...
  • Схватка / Heat (Майкл Манн / Michael Mann, Триллер, драма, криминал , 1995) ...
  • Футбольные гладиаторы / Ушедшее время / Awaydays (Пэт Холден, драма, кримин ...
  • Информация
    Посетители, находящиеся в группе Гости, не могут оставлять комментарии к данной публикации.