вход на сайт

Имя пользователя :
Пароль :

Восстановление пароля Регистрация
Особо опасен / Wanted (Тимур Бекмамбетов, боевик, триллер, криминал, 2008) [BDRip 1080p, полное дублирование + Одноголосый закадровый + оригинал + субтитры]
Рейтинг:
(голосов: 1)



[img]{THEME}/images/logopost.png[/img]



Особо опасен / Wanted
«Выбери свою судьбу»

Год выпуска: 2008
Страна: США, Германия
Производство: Universal Pictures, Базелевс Продакшн
Жанр: боевик, триллер, криминал
Режиссёр: Тимур Бекмамбетов
В ролях: Джеймс МакЭвой, Морган Фриман, Анджелина Джоли, Теренс Стэмп, Томас Кречманн, Common, Кристен Хагер, Марк Уоррен, Дэвид О`Хара, Константин Хабенский, Дато Бахтадзе, Крис Прэтт, Лорна Скотт, София Хак, Брэд Калькатерра, Брайан Каспе, Марк О`Нил, Бриджет МакМанус, Скарлетт Спердуто, Боб Эри, Дэниэл Боутон
Перевод: полное дублирование + Одноголосый закадровый (А.Гаврилов) + оригинал
Субтитры: Russian, English
Описание:
Уэсли Гибсон — зануда и нытик, целыми днями торчащий в офисе. Босс его унижает, подружка ему изменяет. Его жизнь катится в никуда! Обнаружив, что отец, бросивший его в раннем детстве, зверски убит, Уэс оказывается втянут в тайное общество киллеров под названием «Братство». За его обучение берется опытная наставница Фокс, и этот когда-то прикованный к офисному креслу хлюпик развивает молниеносную реакцию и сверхчеловеческую скорость. Однако уже на первом задании Уэсли понимает: есть вещи посложнее, чем вершить судьбы других людей. Это — набраться храбрости и стать хозяином собственной жизни.
IMDB: 6.70 (143 354)
КиноПоиск: 6.895 (44 387)
Качество: BDRip 1080p
Продолжительность: 01:50:00
Формат: MKV
Видео кодек: AVC
Аудио кодек: DTS
Формат видео: 1920x816р, (2,35:1), 23,976 кадр/сек, 12,6 Мбит/сек, 0.337 bit/pixel
Формат аудио:
Аудио#1:Russian: 48 kHz, DTS 5.1 @ 768 Kbps - Дубляж
Аудио#2: Russian: 48 kHz, DTS 5.1 @ 1510 Kbps - Одноголосый закадровый, А.Гаврилов
Аудио#3: English: 48 kHz, DTS 5.1 @ 1510 Kbps - Original

MediaInfo ▼
Text
Полное имя : Wanted.2008.BluRay.1080p.DTS.x264-CHD.mkv
Формат : Matroska
Размер файла : 12,6 Гбайт
Продолжительность : 1 ч. 50 м.
Общий поток : 16,4 Мбит/сек
Название фильма : Wanted (2008)
Дата кодирования : UTC 2011-02-16 06:48:57
Программа кодирования : mkvmerge v4.4.0 (Die Wiederkehr) сборка от Oct 31 2010 21:52:48
Библиотека кодирования : libebml v1.0.0 + libmatroska v1.0.0

Видео
Идентификатор : 1
Формат : AVC
Формат/Информация : Advanced Video Codec
Профиль формата : [email protected]
Параметр CABAC формата : Да
Параметр ReFrames формата : 5 кадры
Идентификатор кодека : V_MPEG4/ISO/AVC
Продолжительность : 1 ч. 50 м.
Битрейт : 12,6 Мбит/сек
Ширина : 1920 пикс.
Высота : 816 пикс.
Соотношение сторон : 2,35:1
Частота кадров : 23,976 кадр/сек
Цветовое пространство : YUV
Подвыборка цветности : 4:2:0
Битовая глубина : 8 бит
Тип развёртки : Прогрессивная
Бит/(Пиксели*Кадры) : 0.337
Размер потока : 9,45 Гбайт (75%)
Библиотека кодирования : x264 core 79 r1352 d487de4
Настройки программы : cabac=1 / ref=5 / deblock=1:-3:-3 / analyse=0x3:0x113 / me=umh / subme=10 / psy=1 / psy_rd=1.0:0.0 / mixed_ref=1 / me_range=32 / chroma_me=1 / trellis=2 / 8x8dct=1 / cqm=0 / deadzone=21,11 / chroma_qp_offset=-1 / threads=4 / nr=0 / decimate=1 / mbaff=0 / constrained_intra=0 / bframes=3 / b_pyramid=0 / b_adapt=2 / b_bias=0 / direct=3 / wpredb=1 / wpredp=0 / keyint=250 / keyint_min=25 / scenecut=40 / rc_lookahead=80 / rc=2pass / mbtree=1 / bitrate=12643 / ratetol=1.0 / qcomp=0.60 / qpmin=10 / qpmax=51 / qpstep=4 / cplxblur=20.0 / qblur=0.5 / vbv_maxrate=50000 / vbv_bufsize=50000 / ip_ratio=1.40 / aq=1:1.00
Язык : English

Аудио #1
Идентификатор : 2
Формат : DTS
Формат/Информация : Digital Theater Systems
Идентификатор кодека : A_DTS
Продолжительность : 1 ч. 50 м.
Вид битрейта : Постоянный
Битрейт : 755 Кбит/сек
Канал(ы) : 6 канала(ов)
Расположение каналов : Front: L C R, Side: L R, LFE
Частота : 48,0 КГц
Битовая глубина : 24 бит
Метод сжатия : С потерями
Размер потока : 596 Мбайт (5%)
Заголовок : DTS
9110b7a741f2035fa804ae2b4b6180241d3da7d4Особо опасен / Wanted (Тимур Бекмамбетов, боевик, триллер, криминал, 2008) [BDRip 1080p, полное дублирование + Одноголосый закадровый + оригинал + субтитры] Особо опасен / Wanted (Тимур Бекмамбетов, боевик, триллер, криминал, 2008) [BDRip 1080p, полное дублирование + Одноголосый закадровый + оригинал + субтитры] " />

Аплоадер: Админ, дата: 24-01-2012, 23:37, торрент скачан: 359 раз

Понравилась раздача? Посмотрите эти:
  • Заложница / Taken (Пьер Морель, Боевик, триллер, криминал, 2008) [BDRip-AVC ...
  • Мальчишник: Часть III / The Hangover Part III (Тодд Филлипс, комедия, 2013) ...
  • Возвращение героя / The Last Stand (Ким Чжи-ун, Боевик, триллер, криминал, ...
  • [3D] Президент Линкольн: Охотник на вампиров / Abraham Lincoln: Vampire Hun ...
  • [EN]Особо опасен / Wanted (Тимур Бекмамбетов) [2008; боевик, триллер, драма ...
  • Особо опасен / Wanted (Тимур Бекмамбетов, Боевик, 2008) [HDRip-AVC, Дублиро ...
  • Особо опасен / Wanted (Тимур Бекмамбетов, боевик, триллер, криминал, 2008) ...
  • Заложница / Taken (Пьер Морель, Боевик, триллер, криминал, 2008) [BDRip-AVC ...
  • Особо опасен / Wanted (Тимур Бекмамбетов, Боевик, триллер, криминал, 2008) ...
  • 2012 / 2012 (Роланд Эммерих, Фантастика, боевик, триллер, драма, приключени ...
  • Мумия [Трилогия]/The Mummy [Trilogy](Стивен Соммерс,Роб Коэн, ужасы,бо ...
  • Армагеддон / Armageddon (Майкл Бэй / Michael Bay, Фантастика, мелодрама, пр ...
  • Жестокие игры / Cruel Intentions (Роджер Камбл, мелодрама, драма, 1999) [BD ...
  • Камень (Вячеслав Каминский, триллер, 2012) [BDRip 1080p, Не требуется]
  • Схватка / The Grey (Джо Карнахан, боевик, триллер, драма, приключения, 2012 ...
  • Мстители / The Avengers (Джосс Уидон, фантастика, боевик, триллер, 2012) [B ...
  • Павшая империя / Hirokin (Алехо Мо-Сан, фантастика, боевик, драма, приключе ...
  • [комиксы] Wanted / Особо Опасен (6 выпусков) [2008, CBR]
  • Особо опасен / Wanted (Тимур Бекмамбетов, Боевик, триллер, криминал, 2008) ...
  • Особо опасен / Wanted (Тимур Бекмамбетов / Timur Bekmambetov, боевик, трилл ...
  • Особо опасен / Wanted (Тимур Бекмамбетов, Боевик, триллер, 2008) [HDRip-AVC ...
  • Особо опасен / Wanted (Тимур Бекмамбетов, Боевик, триллер, криминал, 2008) ...
  • Особо опасен / Wanted (русская версия) (Тимур Бекмамбетов, Боевик, триллер, ...
  • Особо опасен / Wanted (Тимур Бекмамбетов, Боевик, Триллер, Криминал, 2008) ...
  • Особо опасен / Wanted (Тимур Бекмамбетов, боевик, триллер, криминал, 2008) ...
  • Информация
    Посетители, находящиеся в группе Гости, не могут оставлять комментарии к данной публикации.