вход на сайт

Имя пользователя :
Пароль :

Восстановление пароля Регистрация
Далеко-далеко / Far and Away (Рон Ховард, драма, мелодрама, приключения, вестерн, 1992) [HDTVRip 720p, закадровый (многоголосый 2шт + двухголосый 2шт + одноголосый 2шт), subs (rus; eng)]
Рейтинг:
(голосов: 1)



[img]{THEME}/images/logopost.png[/img]



Далеко-далеко / FAR and AWAY

«They needed a country that was big enough for both of their dreams.»

Год выпуска: 1992
Страна: США
Производство: Universal Pictures
Жанр: драма, мелодрама, приключения, вестерн

Режиссёр: Рон Ховард
В ролях: Том Круз, Николь Кидман, Томас Гибсон, Роберт Проски, Барбара Бэбкок, Колм Мини, Мишель Джонсон и др.

Перевод: закадровый (многоголосый) 2шт + закадровый (двухголосый) 2шт + закадровый (одноголосый) 2шт
Озвучка: Первый Канал; РенТВ; Премьер; Гаврилов; Живов
Субтитры: русские; английские

Описание: Рыжеволосая кудрявая красавица и ее скромный, но не имеющий не гроша за душой возлюбленный, ирландец, отправляются на заокеанский далекий Запад в поисках счастья.

IMDB: рейтинг 6.30 (26 165)
КиноПоиск: рейтинг 7.921 (4 148)

Качество: HDTVRip 720p
Продолжительность: 02:19:48

Формат: MKV
Видео кодек: H.264
Аудио кодек: AC3
Видео: 1280x544 (2.35:1); 23.976 fps, 4088 kbps, 0.245 bit/pix
Аудио #1: 48 kHz, 5.1 ch, ~348.00 kbps avg | многоголосый перевод с DVD
Аудио #2: 48 kHz, 2.0 ch, ~192.00 kbps avg | многоголосый перевод Первого канала
Аудио #3: 48 kHz, 2.0 ch, ~192.00 kbps avg | двухголосый перевод Рен ТВ
Аудио #4: 48 kHz, 2.0 ch, ~384.00 kbps avg | двухголосый перевод "Премьер"
Аудио #5: 48 kHz, 5.1 ch, ~384.00 kbps avg | Андрей Гаврилов
Аудио #6: 48 kHz, 5.1 ch, ~384.00 kbps avg | Юрий Живов
Аудио #7: 48 kHz, 5.1 ch, ~384.00 kbps avg | Оригинал
MediaInfo ▼
General
Complete name : D:248FilmsFar.and.Away.1992.720p.HDTV.x264.Rus.Eng.mkv
Format : Matroska
File size : 6.06 GiB
Duration : 2h 19mn
Overall bit rate : 6 201 Kbps
Movie name : Far and Away (1992)
Encoded date : UTC 2010-11-07 09:21:07
Writing application : mkvmerge v4.0.0 (The Stars were mine) built on Jun 6 2010 16:18:42
Writing library : libebml v1.0.0 + libmatroska v1.0.0

Video
ID : 1
Format : AVC
Format/Info : Advanced Video Codec
Format profile : [email protected]
Format settings, CABAC : Yes
Format settings, ReFrames : 11 frames
Codec ID : V_MPEG4/ISO/AVC
Duration : 2h 19mn
Bit rate : 4 088 Kbps
Width : 1 280 pixels
Height : 544 pixels
Display aspect ratio : 2.35:1
Frame rate : 23.976 fps
Color space : YUV
Chroma subsampling : 4:2:0
Bit depth : 8 bits
Scan type : Progressive
Bits/(Pixel*Frame) : 0.245
Stream size : 3.87 GiB (64%)
Writing library : x264 core 105 r1732 2b04482
Encoding settings : cabac=1 / ref=11 / deblock=1:-3:-3 / analyse=0x3:0x133 / me=umh / subme=9 / psy=1 / psy_rd=1.20:0.15 / mixed_ref=1 / me_range=32 / chroma_me=1 / trellis=2 / 8x8dct=1 / cqm=0 / deadzone=21,11 / fast_pskip=0 / chroma_qp_offset=-3 / threads=6 / sliced_threads=0 / nr=0 / decimate=0 / interlaced=0 / constrained_intra=0 / bframes=6 / b_pyramid=2 / b_adapt=2 / b_bias=0 / direct=3 / weightb=1 / open_gop=0 / weightp=2 / keyint=250 / keyint_min=23 / scenecut=40 / intra_refresh=0 / rc_lookahead=60 / rc=2pass / mbtree=1 / bitrate=4088 / ratetol=1.0 / qcomp=0.75 / qpmin=10 / qpmax=51 / qpstep=4 / cplxblur=20.0 / qblur=0.5 / vbv_maxrate=50000 / vbv_bufsize=62500 / ip_ratio=1.40 / aq=1:0.80 / nal_hrd=none
Language : English

Audio #1
ID : 2
Format : AC-3
Format/Info : Audio Coding 3
Mode extension : CM (complete main)
Codec ID : A_AC3
Duration : 2h 19mn
Bit rate mode : Constant
Bit rate : 384 Kbps
Channel(s) : 6 channels
Channel positions : Front: L C R, Side: L R, LFE
Sampling rate : 48.0 KHz
Bit depth : 16 bits
Stream size : 384 MiB (6%)
Title : MVO DVD
Language : Russian

Audio #2
ID : 3
Format : AC-3
Format/Info : Audio Coding 3
Mode extension : CM (complete main)
Codec ID : A_AC3
Duration : 2h 19mn
Bit rate mode : Constant
Bit rate : 192 Kbps
Channel(s) : 2 channels
Channel positions : Front: L R
Sampling rate : 48.0 KHz
Bit depth : 16 bits
Stream size : 192 MiB (3%)
Title : Pervii kanal
Language : Russian

Audio #3
ID : 4
Format : AC-3
d38e67afbc79e2e4c667633f166047b6189258a7Далеко-далеко / Far and Away (Рон Ховард, драма, мелодрама, приключения, вестерн, 1992) [HDTVRip 720p, закадровый (многоголосый 2шт + двухголосый 2шт + одноголосый 2шт), subs (rus; eng)] Далеко-далеко / Far and Away (Рон Ховард, драма, мелодрама, приключения, вестерн, 1992) [HDTVRip 720p, закадровый (многоголосый 2шт + двухголосый 2шт + одноголосый 2шт), subs (rus; eng)] " />

Аплоадер: Админ, дата: 22-01-2012, 15:58, торрент скачан: 359 раз

Понравилась раздача? Посмотрите эти:
  • Ледяной / The Iceman (Ариэль Вромен, драма, криминал, биография, 2013) [BDR ...
  • Королевский бродяга / Lu ding ji (Вонг Джинг, исторический, комедия, боевые ...
  • UFC The Ultimate 100 Knockouts - PPV [MMA,2013, HDTVRip 720p]
  • Смерть на похоронах / Death at a Funeral (Нил ЛаБут, комедия, 2010) [BDRip ...
  • Безопасность не гарантируется / Safety Not Guaranteed (Колин Треворроу, фан ...
  • Водитель / The Driver (Уолтер Хилл, Боевик, триллер, драма, криминал, 1978) ...
  • Убить по расписанию / Ticking Clock (Эрни Барбараш, фантастика, боевик, три ...
  • Цельнометаллическая оболочка / Full Metal Jacket (Стэнли Кубрик, драма, вое ...
  • Персонаж / Stranger Than Fiction (Марк Форстер, Комедия, драма, фантастика, ...
  • Роб Рой / Rob Roy (Майкл Кейтон-Джонс, боевик, драма, мелодрама, 1995) [BDR ...
  • Бомж с дробовиком / Hobo with a Shotgun (Джейсон Айзенер / Jason Eisener, С ...
  • Геркулес / Hercules (Рон Клементс, Джон Маскер, Мультфильм, 1997 г.)[HDTVRi ...
  • Один Дома / Home Alone (Крис Коламбус, комедия, приключения, семейный, 1990 ...
  • Римские каникулы / Roman Holiday (Уильям Уайлер, драма, мелодрама, комедия, ...
  • Красавчик Джонни / Johnny Handsome (Уолтер Хилл, Триллер, драма, криминал, ...
  • Китайский квартал / Chinatown (Роман Полански, Триллер, драма, криминал, де ...
  • На Дороге / On The Road (Уолтер Саллес, Драма, приключения, 2012) [BDRip 72 ...
  • Викинги / Outlander (Ховард МакКейн, Фантастика, боевик, приключения, 2008) ...
  • Чемпионат Европы 2012 / 1/4 финала / Чехия - Португалия / Спорт 1 HD [Футбо ...
  • Чемпионат Европы 2012 / 1/2 финала / Португалия - Испания / Спорт 1 HD [Фу ...
  • Чемпионат Европы 2012 / 1/2 финала / Германия - Италия / Спорт 1 HD [Футбо ...
  • Формула 1. Сезон 2012. Этап 13 из 20. Гран-При Италии, Квалификация. [2012 ...
  • Mylene Farmer / Du Temps [2011, Pop, HDTVRip]
  • Mylene Farmer / Bleu Noir [2011, Pop, HDTVRip]
  • PBS: Природа – Гималаи / PBS: Nature – The Himalayas (Крис Морган, Докумен ...
  • Информация
    Посетители, находящиеся в группе Гости, не могут оставлять комментарии к данной публикации.