вход на сайт

Имя пользователя :
Пароль :

Восстановление пароля Регистрация
Выжить / Alive (Фрэнк Маршалл, триллер, драма, приключения, история, 1992) [HDTVRip 720p, Профессиональный (многоголосый закадровый) + оригинал + оригинал]
Рейтинг:
(голосов: 1)



[img]{THEME}/images/logopost.png[/img]



Выжить / Живые / Alive

«The triumph of the human spirit.»

Год выпуска: 1992
Страна: USA
Производство: Paramount Pictures
Жанр: триллер, драма, приключения, история

Режиссёр: Фрэнк Маршалл
В ролях: Итан Хоук, Винсент Спано, Джош Хэмилтон, Сэм Беренс, Дэвид Кригел, Брюс Рэмси, Кевин Брезнэхэн, Джейк Карпентер, Майкл Де Лоренцо, Или Китс, Хосе Зунига, Джек Нозуорти, Дэнни Нуччи, Джон Хэймс Ньютон, Иллеана Дуглас, Кристиан Меоли

Перевод: Профессиональный (многоголосый закадровый) + оригинал
Субтитры:русские, английские

Описание
Осенью 1972 года в пятницу тринадцатого октября над Андами потерпел катастрофу авиалайнер, на борту которого находилась школьная сборная по регби из Уругвая. Самолет рухнул на высокогорное плато, которое было полностью отрезано от внешнего мира.
Здесь, среди дикой стужи и трупов, горстке оставшихся в живых школьников предстоял жестокий, нечеловеческий тест на выживание. Семьдесят два бесконечных, мучительных дня молодые люди боролись за свою жизнь.
Убежищем им служили обломки самолета, пищей — тела погибших товарищей. Иногда приходится превратиться в зверя, чтобы остаться человеком…



Доп. информация

MediaInfo ▼TextFormat : Matroska
Format version : Version 2
File size : 4.77 GiB
Duration : 2h 6mn
Overall bit rate : 5 402 Kbps
Encoded date : UTC 2009-10-25 15:04:41
Writing application : mkvmerge v2.9.8 (Cest le bon) built on Aug 13 2009 12:49:06
Writing library : libebml v0.7.7 + libmatroska v0.8.1

Video
ID : 1
Format : AVC
Format/Info : Advanced Video Codec
Format profile : [email protected]
Format settings, CABAC : Yes
Format settings, ReFrames : 9 frames
Codec ID : V_MPEG4/ISO/AVC
Duration : 2h 6mn
Bit rate : 4 567 Kbps
Width : 1 280 pixels
Height : 720 pixels
Display aspect ratio : 16:9
Frame rate : 23.976 fps
Color space : YUV
Chroma subsampling : 4:2:0
Bit depth : 8 bits
Scan type : Progressive
Bits/(Pixel*Frame) : 0.207
Stream size : 3.94 GiB (83%)
Writing library : x264 core 67 r1130M 8475977
Encoding settings : cabac=1 / ref=9 / deblock=1:-1:-1 / analyse=0x3:0x113 / me=umh / subme=9 / psy_rd=1.0:0.0 / mixed_ref=1 / me_range=16 / chroma_me=1 / trellis=2 / 8x8dct=1 / cqm=2 / deadzone=21,11 / chroma_qp_offset=-2 / threads=6 / nr=0 / decimate=1 / mbaff=0 / bframes=3 / b_pyramid=1 / b_adapt=2 / b_bias=0 / direct=1 / wpredb=1 / keyint=250 / keyint_min=25 / scenecut=40 / rc=2pass / bitrate=4567 / ratetol=1.0 / qcomp=0.60 / qpmin=10 / qpmax=51 / qpstep=4 / cplxblur=20.0 / qblur=0.5 / ip_ratio=1.40 / pb_ratio=1.30 / aq=1:1.00
Language : English

Audio #1
ID : 2
Format : AC-3
Format/Info : Audio Coding 3
Mode extension : CM (complete main)
Codec ID : A_AC3
Duration : 2h 6mn
Bit rate mode : Constant
Bit rate : 448 Kbps
Channel(s) : 6 channels
Channel positions : Front: L C R, Side: L R, LFE
Sampling rate : 48.0 KHz
Bit depth : 16 bits
Compression mode : Lossy
Stream size : 405 MiB (8%)
Title : AC3 5.1 448 kbps |Многоголосный закадровый|
Language : Russian

Audio #2
ID : 3
Format : AC-3
Format/Info : Audio Coding 3
Mode extension : CM (complete main)
Codec ID : A_AC3
Duration : 2h 6mn
Bit rate mode : Constant
Bit rate : 384 Kbps
Channel(s) : 2 channels
Channel positions : Front: L R
Sampling rate : 48.0 KHz
Bit depth : 16 bits
Compression mode : Lossy
Stream size : 347 MiB (7%)
Title : AC3 2.0 384 kbps |Оригинал|
Language : English

Text #1
ID : 4
Format : UTF-8
Codec ID : S_TEXT/UTF8
Codec ID/Info : UTF-8 Plain Text
Title : Русский
Language : Russian

Text #2
ID : 5
Format : UTF-8
Codec ID : S_TEXT/UTF8
Codec ID/Info : UTF-8 Plain Text
Title : Английские
Language : English

"Знаете ли вы, что..." ▼
Фильм основан на реальных событиях.
Реальный самолёт потерпел крушение в пятницу 13 октября 1972 года.
Реальный Нандо Паррадо (которого играл Этан Хоук) был приглашён в качестве консультанта.
В конце фильма в живых остаются 17 ч
5322127511f8aa9fdb8b90a26b48d7fadc83d943Выжить / Alive (Фрэнк Маршалл, триллер, драма, приключения, история, 1992) [HDTVRip 720p, Профессиональный (многоголосый закадровый) + оригинал + оригинал] Выжить / Alive (Фрэнк Маршалл, триллер, драма, приключения, история, 1992) [HDTVRip 720p, Профессиональный (многоголосый закадровый) + оригинал + оригинал] " />

Аплоадер: Админ, дата: 22-01-2012, 01:06, торрент скачан: 359 раз

Понравилась раздача? Посмотрите эти:
  • Сезон убийц / Killing Season (Марк Стивен Джонсон, триллер, драма, боевик, ...
  • Погнали! / Getaway (Кортни Соломон, боевик, криминал, 2013) [BDRip 720p, Пр ...
  • Парни что надо / The Right Stuff (Филип Кауфман, Фантастика, драма, приключ ...
  • Посылка / The Package (Джесси Джонсон, боевик, 2013) [BDRip 720p, Профессио ...
  • 42 / 42 (Брайан Хелгеленд, Драма, биография, спорт, 2013) [BDRip 720p, Проф ...
  • Честь дракона / Tom yum goong (Прачья Пинкаю, боевик, триллер, драма, крим ...
  • Запретная любовь / The Edge of Love (Джон Мэйбери, Драма, мелодрама, военны ...
  • Водитель / The Driver (Уолтер Хилл, Боевик, триллер, драма, криминал, 1978) ...
  • Суррогат / The Sessions (Бен Луин, драма, 2012) [BDRip 720p, Профессиональн ...
  • Убить по расписанию / Ticking Clock (Эрни Барбараш, фантастика, боевик, три ...
  • Шелуха / Husk (Бретт Симмонс, ужасы, триллер, 2011) [BDRip 720p, Профессион ...
  • Выжить / Alive (Фрэнк Маршалл, триллер, драма, приключения, история, 1992)[ ...
  • Цельнометаллическая оболочка / Full Metal Jacket (Стэнли Кубрик, драма, вое ...
  • Выжить / Alive (Фрэнк Маршалл, триллер, драма, приключения, история,катастр ...
  • Персонаж / Stranger Than Fiction (Марк Форстер, Комедия, драма, фантастика, ...
  • Центурион / Centurion (Нил Маршалл / Neil Marshall, Боевик, триллер, драма, ...
  • Один Дома / Home Alone (Крис Коламбус, комедия, приключения, семейный, 1990 ...
  • Один дома 2: Затерянный в Нью-Йорке / Home Alone 2: Lost in New York (Крис ...
  • Далеко-далеко / Far and Away (Рон Ховард, драма, мелодрама, приключения, ве ...
  • Вся королевская рать / All the Kings Men (Стивен Зеллиан, триллер, драма, 2 ...
  • Рыжий пес / Red Dog (Крив Стендерс, драма, комедия, семейный, 2011) [BDRip ...
  • Похищенная / A Lonely Place to Die (Джулиан Джилби, триллер, криминал, прик ...
  • Семь футов / Seven Below (Кевин Каррауэй, Ужасы, триллер, 2012) [BDRip 720p ...
  • Блудливая Калифорния / Californication // Сезон 5, Эпизоды с 1 по 12 (из 12 ...
  • Хостел 3 / Hostel: Part III (Скотт Спигел / Scott Spiegel, ужасы, триллер, ...
  • Информация
    Посетители, находящиеся в группе Гости, не могут оставлять комментарии к данной публикации.