вход на сайт

Имя пользователя :
Пароль :

Восстановление пароля Регистрация
Агент Джонни Инглиш: Перезагрузка / Johnny English Reborn (Оливер Паркер, боевик, комедия, приключения, 2011) [BDRip 1080p, Дубляж + оригинал]
Рейтинг:
(голосов: 1)



[img]{THEME}/images/logopost.png[/img]



Агент Джонни Инглиш: Перезагрузка/ Johnny English Reborn

«Он не ищет лёгких путей»

Год выпуска: 2011
Страна: США, Франция, Великобритания
Производство: Universal Pictures
Жанр: боевик, комедия, приключения

Режиссёр: Оливер Паркер
В ролях: Роуэн Эткинсон, Джиллиан Андерсон, Доминик Уэст, Розамунд Пайк, Дэниэл Калуя, Ричард Шифф, Бен Миллер, Стивен Кэмпбелл Мур, Кристина Чонг, Жозефин Де Ла Буме

Перевод: Профессиональный (полное дублирование) + оригинал
Субтитры:нет

Описание
Действие фильма разворачивается через 8 лет после событий предшествующего фильма и с тех пор карьера сэра Джонни Инглиша ухудшается. За 5 лет до начала фильма его направили с заданием в Мозамбик, но миссия пошла ужасно плохо. С тех пор он живёт в пещере в горах Тибета, прячась ото всех из-за стыда, сожалений и обвинений в провале миссии.

Фильм начинается, когда герой находится на крайне низком моральном уровне, пока ему не дают ещё один шанс. Британская разведка МИ-7 снова нуждается в нём и ей надо вернуть агента, чтобы тот сорвал заговор группы киллеров, планирующих убить китайского премьер-министра.



Доп. информация

MediaInfo ▼TextFormat : Matroska
Format version : Version 2
File size : 9.25 GiB
Duration : 1h 41mn
Overall bit rate : 13.1 Mbps
Encoded date : UTC 2012-01-19 20:40:08
Writing application : mkvmerge v5.2.0 (I cant explain) built on Dec 18 2011 18:12:03
Writing library : libebml v1.2.3 + libmatroska v1.3.0

Video
ID : 1
Format : AVC
Format/Info : Advanced Video Codec
Format profile : [email protected]
Format settings, CABAC : Yes
Format settings, ReFrames : 5 frames
Codec ID : V_MPEG4/ISO/AVC
Duration : 1h 41mn
Bit rate : 10.8 Mbps
Width : 1 920 pixels
Height : 800 pixels
Display aspect ratio : 2.40:1
Frame rate : 23.976 fps
Color space : YUV
Chroma subsampling : 4:2:0
Bit depth : 8 bits
Scan type : Progressive
Bits/(Pixel*Frame) : 0.293
Stream size : 7.46 GiB (81%)
Title : Johnny.English.Reborn.2011.BluRay.1080p.DTS.x264-CHD
Writing library : x264 core 119 r2106 07efeb4
Encoding settings : cabac=1 / ref=5 / deblock=1:-3:-3 / analyse=0x3:0x113 / me=umh / subme=10 / psy=1 / psy_rd=1.05:0.10 / mixed_ref=1 / me_range=48 / chroma_me=1 / trellis=2 / 8x8dct=1 / cqm=1 / deadzone=21,11 / fast_pskip=0 / chroma_qp_offset=-2 / threads=12 / sliced_threads=0 / nr=0 / decimate=1 / interlaced=0 / bluray_compat=0 / constrained_intra=0 / bframes=6 / b_pyramid=2 / b_adapt=2 / b_bias=0 / direct=3 / weightb=1 / open_gop=0 / weightp=2 / keyint=250 / keyint_min=23 / scenecut=40 / intra_refresh=0 / rc_lookahead=60 / rc=2pass / mbtree=1 / bitrate=10795 / ratetol=2.0 / qcomp=0.70 / qpmin=3 / qpmax=69 / qpstep=4 / cplxblur=20.0 / qblur=0.5 / vbv_maxrate=40000 / vbv_bufsize=30000 / nal_hrd=none / ip_ratio=1.40 / aq=2:1.00
Language : English

Audio #1
ID : 2
Format : DTS
Format/Info : Digital Theater Systems
Codec ID : A_DTS
Duration : 1h 41mn
Bit rate mode : Constant
Bit rate : 754 Kbps
Channel(s) : 6 channels
Channel positions : Front: L C R, Side: L R, LFE
Sampling rate : 48.0 KHz
Bit depth : 24 bits
Compression mode : Lossy
Stream size : 547 MiB (6%)
Title : Russian @ DTS 5.1 @ 768 kbps
Language : Russian

Audio #2
ID : 3
Format : DTS
Format/Info : Digital Theater Systems
Codec ID : A_DTS
Duration : 1h 41mn
Bit rate mode : Constant
Bit rate : 1 510 Kbps
Channel(s) : 6 channels
Channel positions : Front: L C R, Side: L R, LFE
Sampling rate : 48.0 KHz
Bit depth : 24 bits
Compression mode : Lossy
Stream size : 1.07 GiB (12%)
Title : dts 5.1 1536kbps
Language : English



Рейтинг MPAA ▼
Рекомендуется присутствие родителей

Тех. данные
Качество: BDRip 1080p
Продолжительность: 01:41:21

Формат: MKV
Видео кодек: x264
Аудио кодек: DTS
Видео: 1920x800 (2.40:1) at 23.976 fps, [email protected], 2pass, ~10.8 Mbps avg, 0.293 bit/pix
Аудио #1: 48 kHz, DTS, 3/2 (L,C,R,l,r) + LFE ch, ~768.00 kbps
Аудио #2: 48 kHz, DTS, 3/2 (L,C,R,l,r) + LFE
98e36154da556d472c4071d39b1b67d94971865aАгент Джонни Инглиш: Перезагрузка / Johnny English Reborn (Оливер Паркер, боевик, комедия, приключения, 2011) [BDRip 1080p, Дубляж + оригинал] Агент Джонни Инглиш: Перезагрузка / Johnny English Reborn (Оливер Паркер, боевик, комедия, приключения, 2011) [BDRip 1080p, Дубляж + оригинал] " />

Аплоадер: Админ, дата: 20-01-2012, 18:34, торрент скачан: 359 раз

Понравилась раздача? Посмотрите эти:
  • Паркер / Parker (Тейлор Хэкфорд, Боевик, триллер, криминал, 2013) [BDRip 7 ...
  • Агент Джонни Инглиш [дилогия] / Johnny English [dilogy] (Оливер Паркер, Пит ...
  • Жизнь Пи / Life Of Pi (Энг Ли, Драма, приключения, 2012) [BDRip 1080p, Проф ...
  • Толстяк на ринге / Here Comes the Boom (Фрэнк Корачи, Боевик, комедия, 201 ...
  • Агент Джонни Инглиш / Johnny English (Питер Хауит, боевик, комедия, приключ ...
  • Агент Джонни Инглиш: Перезагрузка / Johnny English Reborn (Оливер Паркер, б ...
  • Агент Джонни Инглиш: Перезагрузка / Johnny English Reborn (Оливер Паркер, б ...
  • Агент Джонни Инглиш: Перезагрузка / Johnny English Reborn (Оливер Паркер, Б ...
  • Агент Джонни Инглиш: Перезагрузка / Johnny English Reborn (Оливер Паркер, Б ...
  • Трансформеры 3: Тёмная сторона Луны / Transformers: Dark of the Moon (Майкл ...
  • Дети шпионов 4D / Spy Kids: All the Time in the World in 4D (Роберт Родриге ...
  • Двойник дьявола / The Devils Double (Ли Тамахори, драма, биография, 2011) [ ...
  • Погоня / Abduction (Джон Синглтон, боевик, триллер, драма, детектив,2011) [ ...
  • Профессионал / Killer Elite (Гэри МакКендри, Боевик, Триллер, Криминал, 201 ...
  • «Весёлые» каникулы / Get the Gringo (Адриан Грюнберг, Боевик, комедия, 2012 ...
  • Морской бой / Battleship (Питер Берг, Фантастика, боевик, триллер, приключе ...
  • Хижина в лесу / The Cabin in the Woods (Дрю Годдард, Ужасы, фантастика, три ...
  • Супер Майк / Magic Mike (Стивен Содерберг, Драма, комедия, 2012) [BDRip 108 ...
  • На Дороге / On The Road (Уолтер Саллес, Драма, приключения, 2012) [BDRip 10 ...
  • Эволюция Борна / The Bourne Legacy (Тони Гилрой, Боевик, триллер, детектив, ...
  • Агент Джонни Инглиш / Johnny English (Питер Хауит, боевик, комедия, приключ ...
  • Агент Джонни Инглиш: Перезагрузка / Johnny English Reborn (Оливер Паркер, б ...
  • Агент Джонни Инглиш: Перезагрузка / Johnny English Reborn (Оливер Паркер, б ...
  • Агент Джонни Инглиш: Перезагрузка / Johnny English Reborn (Оливер Паркер, б ...
  • Агент Джонни Инглиш: Перезагрузка / Johnny English Reborn (Оливер Паркер, б ...
  • Информация
    Посетители, находящиеся в группе Гости, не могут оставлять комментарии к данной публикации.