вход на сайт

Имя пользователя :
Пароль :

Восстановление пароля Регистрация
Время / In Time (Эндрю Никкол, фантастика, триллер, драма, мелодрама, криминал, 2011) [BDRip 1080p, Дубляж + оригинал + суб]
Рейтинг:
(голосов: 1)



[img]{THEME}/images/logopost.png[/img]



Время / In Time

«Живи вечно или умри, пытаясь»

Год выпуска: 2011
Страна: США
Производство: New Regency Pictures
Жанр: фантастика, триллер, драма, мелодрама, криминал

Режиссёр: Эндрю Никкол
В ролях: Джереми Нортэм, Люси Лью, Найджел Беннетт, Тимоти Веббер, Дэвид Хьюлет, Кэри Матчетт, Кристина Николл, Джозеф Скорен, Стивен Браун, Арнольд Пиннок

Перевод: Профессиональный (полное дублирование) + оригинал
Субтитры:Russian, English

Описание
Добро пожаловать в мир, где время стало единственной и самой твердой валютой, где люди генетически запрограммированы так, что в 25 лет перестают стареть. Правда, последующие годы стоят денег. И вот богатые становятся практически бессмертными, а бедные, как всегда, обречены сражаться за жизнь.

Уилл, бунтарь из гетто, несправедливо обвинен в убийстве с целью грабежа времени и вынужден, захватив заложницу, пуститься в бега. Так, ежеминутно рискуя жизнью, эти двое становятся грозным оружием в борьбе с системой. Но вот вопрос: кто кого? А может быть, в дело вмешается третья сила?..



Доп. информация

MediaInfo ▼TextFormat : Matroska
File size : 11.3 GiB
Duration : 1h 49mn
Overall bit rate : 14.9 Mbps
Movie name : -Talian-
Encoded date : UTC 2012-01-19 12:59:27
Writing application : mkvmerge v5.0.1 (Es ist Sommer) built on Oct 9 2011 11:55:43
Writing library : libebml v1.2.2 + libmatroska v1.3.0
Video
ID : 1
Format : AVC
Format/Info : Advanced Video Codec
Format profile : [email protected]
Format settings, CABAC : Yes
Format settings, ReFrames : 5 frames
Codec ID : V_MPEG4/ISO/AVC
Duration : 1h 49mn
Bit rate : 12.6 Mbps
Width : 1 920 pixels
Height : 816 pixels
Display aspect ratio : 2.35:1
Frame rate : 23.976 fps
Color space : YUV
Chroma subsampling : 4:2:0
Bit depth : 8 bits
Scan type : Progressive
Bits/(Pixel*Frame) : 0.335
Stream size : 9.39 GiB (83%)
Title : In.Time.2011.1080p.BluRay.x264.DTS-HDChina
Writing library : x264 core 120 r2145 748fe16
Encoding settings : cabac=1 / ref=5 / deblock=1:-3:-3 / analyse=0x3:0x133 / me=umh / subme=10 / psy=1 / psy_rd=0.90:0.00 / mixed_ref=1 / me_range=64 / chroma_me=1 / trellis=2 / 8x8dct=1 / cqm=0 / deadzone=21,11 / fast_pskip=0 / chroma_qp_offset=-2 / threads=12 / sliced_threads=0 / nr=0 / decimate=0 / interlaced=0 / bluray_compat=0 / constrained_intra=0 / bframes=8 / b_pyramid=2 / b_adapt=2 / b_bias=0 / direct=3 / weightb=1 / open_gop=0 / weightp=2 / keyint=240 / keyint_min=24 / scenecut=40 / intra_refresh=0 / rc=2pass / mbtree=0 / bitrate=12588 / ratetol=1.0 / qcomp=0.75 / qpmin=0 / qpmax=69 / qpstep=4 / cplxblur=20.0 / qblur=0.5 / ip_ratio=1.40 / pb_ratio=1.25 / aq=1:1.10
Language : English
Audio #1
ID : 2
Format : DTS
Format/Info : Digital Theater Systems
Codec ID : A_DTS
Duration : 1h 49mn
Bit rate mode : Constant
Bit rate : 755 Kbps
Channel(s) : 6 channels
Channel positions : Front: L C R, Side: L R, LFE
Sampling rate : 48.0 KHz
Bit depth : 24 bits
Compression mode : Lossy
Stream size : 590 MiB (5%)
Title : DUB-R5
Language : Russian
Audio #2
ID : 3
Format : DTS
Format/Info : Digital Theater Systems
Codec ID : A_DTS
Duration : 1h 49mn
Bit rate mode : Constant
Bit rate : 1 510 Kbps
Channel(s) : 6 channels
Channel positions : Front: L C R, Side: L R, LFE
Sampling rate : 48.0 KHz
Bit depth : 24 bits
Compression mode : Lossy
Stream size : 1.15 GiB (10%)
Title : Original
Language : English
Text #1
ID : 4
Format : UTF-8
Codec ID : S_TEXT/UTF8
Codec ID/Info : UTF-8 Plain Text
Title : Sub
Language : Russian
Text #2
ID : 5
Format : UTF-8
Codec ID : S_TEXT/UTF8
Codec ID/Info : UTF-8 Plain Text
Title : Sub
Language : English
Menu
00:00:00.000 : 00:00:00.000
00:07:20.917 : 00:07:20.917
00:15:20.333 : 00:15:20.333
00:22:17.167 : 00:22:17.167
00:28:41.583 : 00:28:41.583
00:37:07.042 : 00:37:07.042
00:43:38.292 : 00:43:38.292
00:51:06.167 : 00:51:06.167
00:58:33.667 : 00:58:33.667
01:05:24.917 : 01:05:24.917
01:13:58.792 : 01:13:58.792
01:19:52.875 : 01:19:52.875
01:28:44.250 : 01:28:44.250
01:34:44.2
e40830f23a537101fa85f4f71701616678538c9bВремя / In Time (Эндрю Никкол, фантастика, триллер, драма, мелодрама, криминал, 2011) [BDRip 1080p, Дубляж + оригинал + суб] Время / In Time (Эндрю Никкол, фантастика, триллер, драма, мелодрама, криминал, 2011) [BDRip 1080p, Дубляж + оригинал + суб] " />

Аплоадер: Админ, дата: 20-01-2012, 02:06, торрент скачан: 359 раз

Понравилась раздача? Посмотрите эти:
  • Время / In Time (Эндрю Никкол, Фантастика, триллер, драма, мелодрама, крими ...
  • Время / In Time (Эндрю Никкол, фантастика, триллер, криминал, 2011) [DVDRip ...
  • Время / In Time (Эндрю Никкол, фантастика, триллер, криминал, 2011) [HDRip- ...
  • Время / In Time (Эндрю Никкол, фантастика, триллер, криминал, 2011) [HDRip- ...
  • Время / In Time (Эндрю Никкол, фантастика, триллер, драма, мелодрама, крими ...
  • Время / In Time (Эндрю Никкол, Фантастика, 2011) [BDRip 720p, Дубляж + Ориг ...
  • Время / In Time (Эндрю Никкол, Фантастика, триллер, драма, 2011) [BDRemux 1 ...
  • Время / In Time (Эндрю Никкол, Фантастика, триллер, криминал, 2011) [480x20 ...
  • Время / In Time (Эндрю Никкол, фантастика, триллер, криминал, 2011) [DVD5, ...
  • Время / In Time (Эндрю Никкол, фантастика, триллер, криминал, 2011) [DVDRip ...
  • Время / In Time (Эндрю Никкол, фантастика, триллер, криминал, 2011) [DVDRip ...
  • Время / In Time (Эндрю Никкол, фантастика, триллер, драма, мелодрама, крими ...
  • Время / In Time (Эндрю Никкол, фантастика, триллер, криминал, 2011) [HDRip, ...
  • Время / In Time (Эндрю Никкол, фантастика, триллер, криминал, 2011) [640 x ...
  • Время / In Time (Эндрю Никкол, фантастика, триллер, криминал, 2011) [HDRip, ...
  • Время / In Time (Эндрю Никкол, фантастика, триллер, криминал, 2011) [HDRip, ...
  • Время / In Time (Эндрю Никкол, фантастика, триллер, драма, мелодрама, крими ...
  • Время / In Time (Эндрю Никкол, фантастика, триллер, криминал, 2011) [HDRip, ...
  • Время / In Time (Эндрю Никкол, фантастика, триллер, криминал, 2011) [BDRip, ...
  • Время / In Time (Эндрю Никкол, фантастика, триллер, драма, мелодрама, крими ...
  • Информация
    Посетители, находящиеся в группе Гости, не могут оставлять комментарии к данной публикации.