вход на сайт

Имя пользователя :
Пароль :

Восстановление пароля Регистрация
Области тьмы | Limitless (Нил Бёргер, Фантастика, триллер, детектив, 2011) [BDRip 1080p, Профессиональный (полное дублирование) + Оригинал + Субтитры]
Рейтинг:
(голосов: 1)



[img]{THEME}/images/logopost.png[/img]



Области тьмы | Limitless
«Что если одна таблетка NZT сделает тебя богатым и могущественным? Узнай о побочных эффектах»

Год выпуска: 2011
Страна: США
Производство: Relativity Media
Жанр: Фантастика, триллер, детектив

Режиссёр: Нил Бёргер
В ролях: Брэдли Купер, Роберт Де Ниро, Эбби Корниш, Эндрю Ховард, Анна Фрил, Джонни Витуорт, Томас Арана, Роберт Джон Бёрк, Даррен Голдштейн, Нед Эйзенберг

Перевод: Профессиональный (полное дублирование) + Оригинал
Субтитры: Русские, Английские [полные, UTF-8]

Описание: Нью-йоркский писатель Эдди, желая преодолеть чёрную полосу в жизни, принимает засекреченный препарат под названием NZT. Таблетка выводит мозг парня на работу в нереальной мощности. Этот творческий наркотик меняет всю жизнь Эдди, за короткий срок он зарабатывает кучу денег, но скоро начинает страдать от зловещих побочных эффектов препарата. А когда пытается найти других NZT-гениев, чтобы понять, как можно справиться с этим пристрастием, он узнает страшную правду… Дата премьеры (мир): 8 марта 2011
Дата премьеры (РФ): 17 марта 2011, «Парадиз», «Наше Кино»
Качество: BDRip 1080p
Продолжительность: 01:44:46

Формат: MKV
Видео кодек: H264
Аудио кодек: AC3
Видео: 1920x800 (2.40:1), 23.976 fps, ~14000 kbps avg, 0.380 bit/pixel
Аудио #1: 48 kHz, Digital Theater Systems, 3/2 (L,C,R,l,r) + LFE ch, ~1 510 kbps |Профессиональный|
Аудио #2: 48 kHz, Digital Theater Systems, 3/2 (L,C,R,l,r) + LFE ch, ~1 510 kbps |Оригинал|
Аудио #3: 48 kHz, Audio Coding 3, 2 (L,R) ch, ~192.00 kbps |(коменты)|
MediaInfo ▼TextGeneral
Unique ID : 208714695716876855177392236578303858224 (0x9D04FCFCBD00FA8AA55A287BCE3B5630)
Complete name : /mnt/data/torrents/god_den/Limitless.2011.Blu-ray.1080p.mkv
Format : Matroska
Format version : Version 2
File size : 12.6 GiB
Duration : 1h 44mn
Overall bit rate : 17.2 Mbps
Movie name : HANSMER
Encoded date : UTC 2011-07-08 10:33:05
Writing application : mkvmerge v4.8.0 (I Got The...) сборка от May 24 2011 03:12:58
Writing library : libebml v1.2.0 + libmatroska v1.1.0

Video
ID : 1
Format : AVC
Format/Info : Advanced Video Codec
Format profile : [email protected]
Format settings, CABAC : Yes
Format settings, ReFrames : 5 frames
Codec ID : V_MPEG4/ISO/AVC
Duration : 1h 44mn
Bit rate : 14.0 Mbps
Width : 1 920 pixels
Height : 800 pixels
Display aspect ratio : 2.40:1
Frame rate : 23.976 fps
Color space : YUV
Chroma subsampling : 4:2:0
Bit depth : 8 bits
Scan type : Progressive
Bits/(Pixel*Frame) : 0.380
Stream size : 9.99 GiB (79%)
Title : Limitless.2011.Blu-ray.US.Theatrical.Cut.1080p.x264-NiP
Writing library : x264 core 115 r2008 4c552d8
Encoding settings : cabac=1 / ref=5 / deblock=1:-3:-2 / analyse=0x3:0x113 / me=umh / subme=10 / psy=1 / psy_rd=1.05:0.05 / mixed_ref=1 / me_range=32 / chroma_me=1 / trellis=2 / 8x8dct=1 / cqm=0 / deadzone=21,11 / fast_pskip=0 / chroma_qp_offset=-3 / threads=12 / sliced_threads=0 / nr=0 / decimate=0 / interlaced=0 / bluray_compat=0 / constrained_intra=0 / bframes=12 / b_pyramid=2 / b_adapt=2 / b_bias=0 / direct=3 / weightb=1 / open_gop=0 / weightp=2 / keyint=250 / keyint_min=23 / scenecut=40 / intra_refresh=0 / rc_lookahead=60 / rc=2pass / mbtree=0 / bitrate=14000 / ratetol=1.0 / qcomp=0.80 / qpmin=0 / qpmax=51 / qpstep=4 / cplxblur=20.0 / qblur=0.5 / vbv_maxrate=50000 / vbv_bufsize=62500 / nal_hrd=none / ip_ratio=1.30 / pb_ratio=1.10 / aq=2:0.90
Language : English
Matrix coefficients : BT.709-5, BT.1361, IEC 61966-2-4 709, SMPTE RP177

Audio #1
ID : 2
Format : DTS
Format/Info : Digital Theater Systems
Codec ID : A_DTS
Duration : 1h 44mn
Bit rate mode : Constant
Bit rate : 1 510 Kbps
Channel(s) : 6 channels
Channel positions : Front: L C R, Side: L R, LFE
Sampling rate : 48.0 KHz
Bit depth : 24 bits
Compression mode : Lossy
Stream size : 1.10 GiB (9%)
Language : Russian

Audio #2
ID : 3
Format : DTS
Format/Info : Digital Theater Systems
Codec ID : A_DTS
Duration : 1h 44mn
Bit rate mode : Constant
Bit rate : 1 51
c4444bbc39bd231f7b82e816fd75c8aa06758625Области тьмы | Limitless (Нил Бёргер, Фантастика, триллер, детектив, 2011) [BDRip 1080p, Профессиональный (полное дублирование) + Оригинал + Субтитры] Области тьмы | Limitless (Нил Бёргер, Фантастика, триллер, детектив, 2011) [BDRip 1080p, Профессиональный (полное дублирование) + Оригинал + Субтитры] " />

Аплоадер: Админ, дата: 19-01-2012, 22:44, торрент скачан: 359 раз

Понравилась раздача? Посмотрите эти:
  • Области тьмы / Limitless (Нил Бёргер, фантастика, триллер, детектив, 2011) ...
  • Области тьмы / Limitless [Unrated Extended Cut] (Нил Бёргер, фантастика, тр ...
  • Области тьмы / Limitless [Unrated Extended Cut] (Нил Бёргер, фантастика, тр ...
  • Области тьмы / Limitless [Unrated Extended Cut] (Нил Бёргер, фантастика, тр ...
  • Области тьмы [Театральная версия] / Limitless [Theatrical Cut] (Нил БёргерФ ...
  • Области тьмы / Limitless (Нил Бёргер, фантастика, триллер, детектив, 2011) ...
  • Области тьмы / Limitless [Unrated Extended Cut] (Нил Бёргер, фантастика, т ...
  • Восстание планеты обезьян / Rise of the Planet of the Apes (Руперт Уайатт, ...
  • Погоня / Abduction (Джон Синглтон, боевик, триллер, драма, детектив,2011) [ ...
  • Чужие на районе / Attack the Block (Джо Корниш, фантастика, боевик, комедия ...
  • Хижина в лесу / The Cabin in the Woods (Дрю Годдард, Ужасы, фантастика, три ...
  • Судный день / The Day (Дуглас Арниокоски, Фантастика, триллер, драма, 2011) ...
  • Области тьмы / Limitless [Unrated Extended Cut] (Нил Бёргер, фантастика, тр ...
  • Области тьмы / Limitless (Нил Бёргер , фантастика, триллер, детектив, 2011) ...
  • Области тьмы / Limitless (Нил Бёргер , фантастика, триллер, детектив, 2011) ...
  • Области тьмы / Limitless (Нил Бёргер, фантастика, триллер, детектив, 2011 г ...
  • Области тьмы / Limitless (Нил Бёргер, фантастика, триллер, детектив, 2011) ...
  • Области тьмы / Limitless (Нил Бёргер, фантастика, триллер, детектив, 2011) ...
  • Области тьмы / Limitless (Нил Бёргер, фантастика, триллер, детектив, 2011) ...
  • Области тьмы / Limitless (Нил Бёргер, фантастика, триллер, детектив, 2011г) ...
  • Области тьмы / Limitless [Unrated Extended Cut] (Нил Бёргер,фантастика, три ...
  • Области тьмы / Limitless [Unrated Extended Cut] (Нил Бёргер, фантастика, тр ...
  • Области тьмы / Limitless (Нил Бёргер, фантастика, триллер, детектив, 2011) ...
  • Области тьмы / Limitless (Нил Бёргер, фантастика, триллер, детектив, 2011г) ...
  • Области тьмы [Театральная версия] / Limitless [Theatrical Cut] (Нил БёргерФ ...
  • Информация
    Посетители, находящиеся в группе Гости, не могут оставлять комментарии к данной публикации.