вход на сайт

Имя пользователя :
Пароль :

Восстановление пароля Регистрация
Чернокнижник / Warlock (Стив Майнер, ужасы, фэнтези, боевик, триллер, 1989) [BDRip 720p, Профессиональный (многоголосый, закадровый) + Авторский (одноголосый закадровый) 2шт + Оригинал ]
Рейтинг:
(голосов: 1)



[img]{THEME}/images/logopost.png[/img]



Чернокнижник
Warlock
«Hes come from the past to destroy the future.»


Год выпуска: 1989
Страна: США
Жанр: ужасы, фэнтези, боевик, триллер
Производство: New World Pictures


Режиссер: Стив Майнер / Steve Miner
В ролях:

Джулиан Сэндс (Warlock), Лори Сингер (Kassandra), Ричард Э. Грант (Giles Redferne), Мэри Воронов (Channeler), Кевин О’Брайэн (Chas), Ричард Касс (Mennonite), Аллан Миллер (Detective), Анна Левайн-Томпсон (Pastors Wife), Дэвид Карпентер (Pastor), Кей Катер (Proctor), Йен Эберкромби (Magistrate #1), Кеннет Дэнзигер (Magistrate #2)
Дублёры: Александр Рахленко (Warlock), Марина Дюжева (Kassandra), Дмитрий Матвеев (Giles Redferne), Ирина Губанова (Channeler), Рудольф Панков (Pastor)


Перевод: Профессиональный (многоголосый, закадровый) + Авторский (одноголосый закадровый {Дохалов Вартан} + Авторский (одноголосый закадровый {А. Карповский} + Оригинал
Субтитры: Нет


Описание: Колдун из XVII века бежит в 1988 год, чтобы избежать повешения и сожжения над корзиной с живыми кошками. Но беглеца преследует дух его заклятого врага, восставшего из могилы, чтобы покончить с нечистью, пользующейся покровительства сатанинских сил.MPAA: R - Лицам до 17 лет обязательно присутствие взрослого

Качество: BDRip [720p]
Продолжительность: 01:43:00

Контейнер: MKV
Видео кодек: x264
Аудио кодек: AC3
Видео: 1280x694, x264,16:9 AR, 23.976 fps, 5685 kbps, 0.267 bit/pixel
Аудио №1: Dolby AC3, 48 kHz, 192 kbps, 2 ch - Профессиональный (многоголосый, закадровый)
Аудио №2: Dolby AC3, 48 kHz, 192 kbps, 2 ch - Авторский (одноголосый закадровый) {Дохалов Вартан}
Аудио №3: Dolby AC3, 48 kHz, 192 kbps, 2 ch - Авторский (одноголосый закадровый) {А. Карповский}
Аудио №4: Dolby AC3, 48 kHz, 384 kbps, 6 ch - Оригинал

MediaInfo ▼General
Unique ID : 242336017016252308016498805960783090471 (0xB650381C047C85A9A13DFF327312D327)
Complete name : /mnt/dat0/torrents/crazygreat/Warlock_BDRip_720p_Crazy/Warlock_BDRip_720p_Crazy.mkv
Format : Matroska
Format version : Version 1
File size : 4.79 GiB
Duration : 1h 43mn
Overall bit rate : 6 647 Kbps
Encoded date : UTC 2010-03-30 01:39:11
Writing application : mkvmerge v2.4.0 (Fumbling Towards Ecstasy) built on Oct 11 2008 20:13:15
Writing library : libebml v0.7.7 + libmatroska v0.8.1

Video
ID : 1
Format : AVC
Format/Info : Advanced Video Codec
Format profile : [email protected]
Format settings, CABAC : Yes
Format settings, ReFrames : 9 frames
Codec ID : V_MPEG4/ISO/AVC
Duration : 1h 43mn
Bit rate : 5 685 Kbps
Width : 1 280 pixels
Height : 694 pixels
Display aspect ratio : 16:9
Frame rate : 23.976 fps
Color space : YUV
Chroma subsampling : 4:2:0
Bit depth : 8 bits
Scan type : Progressive
Bits/(Pixel*Frame) : 0.267
Stream size : 4.00 GiB (84%)
Title : Warlock (1989) x264-CRiSC
Writing library : x264 core 88 r1471 1144615
Encoding settings : cabac=1 / ref=9 / deblock=1:-3:-3 / analyse=0x3:0x133 / me=umh / subme=10 / psy=1 / psy_rd=1.00:0.00 / mixed_ref=1 / me_range=24 / chroma_me=1 / trellis=2 / 8x8dct=1 / cqm=0 / deadzone=21,11 / fast_pskip=0 / chroma_qp_offset=-2 / threads=3 / sliced_threads=0 / nr=0 / decimate=0 / mbaff=0 / constrained_intra=0 / bframes=7 / b_pyramid=2 / b_adapt=2 / b_bias=0 / direct=3 / wpredb=1 / wpredp=2 / keyint=250 / keyint_min=25 / scenecut=40 / intra_refresh=0 / rc_lookahead=0 / rc=2pass / mbtree=0 / bitrate=5685 / ratetol=1.0 / qcomp=0.60 / qpmin=10 / qpmax=51 / qpstep=4 / cplxblur=20.0 / qblur=0.5 / vbv_maxrate=50000 / vbv_bufsize=62500 / ip_ratio=1.40 / pb_ratio=1.30 / aq=1:0.80
Language : English

Audio #1
ID : 2
Format : AC-3
Format/Info : Audio Coding 3
Mode extension : CM (complete main)
Codec ID : A_AC3
Duration : 1h 43mn
Bit rate mode : Constant
Bit rate : 192 Kbps
Channel(s) : 2 channels
Channel positions : Front: L R
Sampling rate : 48.0 KHz
Bit depth : 16 bits
Compression mode : Lossy
Stream size : 142 MiB (3%)
Title : Zakadr
Language : Russian

Audio #2
ID : 3
Format : AC-3
Format/Info : Audio Coding 3
Mode extension : CM (compl
a3e3bc2b988cbf5140990a6ce733a3b08b194f8aЧернокнижник / Warlock (Стив Майнер, ужасы, фэнтези, боевик, триллер, 1989) [BDRip 720p, Профессиональный (многоголосый, закадровый) + Авторский (одноголосый закадровый) 2шт + Оригинал ] Чернокнижник / Warlock (Стив Майнер, ужасы, фэнтези, боевик, триллер, 1989) [BDRip 720p, Профессиональный (многоголосый, закадровый) + Авторский (одноголосый закадровый) 2шт + Оригинал ] " />

Аплоадер: Админ, дата: 11-01-2012, 15:00, торрент скачан: 359 раз

Понравилась раздача? Посмотрите эти:
  • Королевский бродяга / Lu ding ji (Вонг Джинг, исторический, комедия, боевые ...
  • Добро пожаловать в капкан / Welcome to the Punch (Эрен Криви, боевик, трил ...
  • Ордер на смерть / Death warrant (Деран Сарафян, Боевик, драма, криминал, де ...
  • Водитель / The Driver (Уолтер Хилл, Боевик, триллер, драма, криминал, 1978) ...
  • Чернокнижник / Warlock (Стив Майнер, Ужасы, Боевик, Триллер, Фэнтези, 1989) ...
  • Солдат Джейн / G.I. Jane (Ридли Скотт, боевик, драма, 1997) [BDRip-AVC, Про ...
  • Чернокнижник / Warlock (Стив Майнер / Steve Miner, ужасы, фэнтези, боевик, ...
  • Чернокнижник / Warlock (Стив Майнер / Steve Miner, ужасы, фэнтези, триллер, ...
  • Обряд / The Rite (Микаэль Хафстрем, ужасы, триллер, драма, 2011) [BDRip-AVC ...
  • Остановка / Rest Stop: Dead Ahead (Джон Шибан, ужасы, триллер, 2006) [BDRip ...
  • Пир / Feast (Джон Гулажер, ужасы, боевик, триллер, комедия, 2005) [BDRip-AV ...
  • Пришелец / Impostor (Гэри Фледер, фантастика, боевик, триллер, драма, 2001) ...
  • Пятница 13-е / Friday the 13th (Шон С. Каннингэм, ужасы, триллер, детектив, ...
  • Пятница 13-е Часть 2 / Friday the 13th Part 2 (Стив Майнер, ужасы, триллер, ...
  • Охота за "Красным Октябрём" / The Hunt for "Red October" (Джон МакТирнан, б ...
  • Пятница 13-е Часть III / Friday the 13th Part III (Стив Майнер, ужасы, трил ...
  • Любимые / The Loved Ones (Шон Бирн, ужасы, триллер, драма, 2009) [BDRip-AVC ...
  • Роб Рой / Rob Roy (Майкл Кейтон-Джонс, боевик, драма, мелодрама, 1995) [BDR ...
  • Один Дома / Home Alone (Крис Коламбус, комедия, приключения, семейный, 1990 ...
  • Красавчик Джонни / Johnny Handsome (Уолтер Хилл, Триллер, драма, криминал, ...
  • Специалист / The Specialist (Луис Льоса, боевик, триллер, 1994) [BDRip 1080 ...
  • Китайский квартал / Chinatown (Роман Полански, Триллер, драма, криминал, де ...
  • Такси 2 / Taxi 2 (Жерар Кравчик, боевик, комедия, криминал, 2000) [BDRip 72 ...
  • Чернокнижник / Warlock (Стив Майнер, фэнтези, триллер, приключения, 1988) [ ...
  • Викинги / Outlander (Ховард МакКейн, Фантастика, боевик, приключения, 2008) ...
  • Информация
    Посетители, находящиеся в группе Гости, не могут оставлять комментарии к данной публикации.