вход на сайт

Имя пользователя :
Пароль :

Восстановление пароля Регистрация
Укуренные / Cheech and Chongs Up in Smoke (Лу Адлер, Томми Чонг, комедия, музыка, 1978) [HDTV 1080i, Профессиональный (одноголосый) (Петр Гланц) + Оригинал]
Рейтинг:
(голосов: 1)



[img]{THEME}/images/logopost.png[/img]



Укуренные / Cheech and Chongs Up in Smoke

Год выпуска: 1978
Страна: США
Производство: Paramount Pictures
Жанр: комедия, музыка

Режиссёр: Лу Адлер, Томми Чонг
В ролях: Томми Чонг (Tommy Chong), Чич Марин (Cheech Marin), Стразер Мартин (Strother Martin), Эди Адамс (Edie Adams), Харольд Фонг (Harold Fong)

Перевод: Профессиональный (одноголосый) (Петр Гланц) - ненормативная лексика + Оригинальная звуковая дорожка
Субтитры: русские, английские

Описание: Двое незадачливых хиппи пытаются попасть в Лос-Анджелес, но, полностью укурившись, теряются где-то в Мексике. Косяки размером с хот-дог и дети цветов, перебравшие с дозой…

IMDB: 6.80 (13 692)
КиноПоиск: 7.228 (284)

MeDiAiNfO ▼
Complete name : Cheech.and.Chongs.Up.in.Smoke.1978.1080i.HDTV.MPEG2.AC3.mkv
Format : Matroska
Format version : Version 2
File size : 6.59 GiB
Duration : 1h 25mn
Overall bit rate mode : Variable
Overall bit rate : 11.0 Mbps
Encoded date : UTC 2010-03-14 18:03:11
Writing application : mkvmerge v3.0.0 (Hang up your Hang-Ups) built on Dec 12 2009 15:20:35
Writing library : libebml v0.7.9 + libmatroska v0.8.1

Video
ID : 1
Format : MPEG Video
Format version : Version 2
Format profile : [email protected]
Format settings, BVOP : Yes
Format settings, Matrix : Custom
Codec ID : V_MPEG2
Codec ID/Info : MPEG 1 or 2 Video
Duration : 1h 25mn
Bit rate mode : Variable
Bit rate : 9 879 Kbps
Maximum bit rate : 15.0 Mbps
Width : 1 920 pixels
Height : 1 080 pixels
Display aspect ratio : 16:9
Frame rate : 29.970 fps
Standard : Component
Color space : YUV
Chroma subsampling : 4:2:0
Bit depth : 8 bits
Scan type : Interlaced
Scan order : Top Field First
Compression mode : Lossy
Bits/(Pixel*Frame) : 0.159
Stream size : 5.92 GiB (90%)
Title : MPEG2, 1920x1080i, 29.97 fps, 9.9 Mbps
Language : English

Audio #1
ID : 2
Format : AC-3
Format/Info : Audio Coding 3
Mode extension : CM (complete main)
Codec ID : A_AC3
Duration : 1h 25mn
Bit rate mode : Constant
Bit rate : 448 Kbps
Channel(s) : 6 channels
Channel positions : Front: L C R, Side: L R, LFE
Sampling rate : 48.0 KHz
Bit depth : 16 bits
Compression mode : Lossy
Delay relative to video : -33ms
Stream size : 275 MiB (4%)
Title : AC3, 5.1, 448 kbps
Language : Russian

Audio #2
ID : 3
Format : AC-3
Format/Info : Audio Coding 3
Mode extension : CM (complete main)
Codec ID : A_AC3
Duration : 1h 25mn
Bit rate mode : Constant
Bit rate : 448 Kbps
Channel(s) : 6 channels
Channel positions : Front: L C R, Side: L R, LFE
Sampling rate : 48.0 KHz
Bit depth : 16 bits
Compression mode : Lossy
Delay relative to video : -33ms
Stream size : 275 MiB (4%)
Title : AC3, 5.1, 448 kbps
Language : English

Text #1
ID : 4
Format : UTF-8
Codec ID : S_TEXT/UTF8
Codec ID/Info : UTF-8 Plain Text
Language : Russian

Text #2
ID : 5
Format : UTF-8
Codec ID : S_TEXT/UTF8
Codec ID/Info : UTF-8 Plain Text
Language : English



thx poleee



Качество: HDTV 1080i
Продолжительность: 01:25:47

Формат: MKV
Видео кодек: MPEG2
Аудио кодек: AC3
Видео: 1920x1080i (1.778) 29.970 fps, MPEG-2, ~9879 kbps avg, 0.159 bit/pixel
Аудио#1: Русский 48 kHz, AC3 Dolby Digital, 3/2 (L,C,R,l,r) + LFE ch, ~448.00 kbps avg
Аудио#2: Английский 48 kHz, AC3 Dolby Digital, 3/2 (L,C,R,l,r) + LFE ch, ~448.00 kbps avg


5359daf8879421c1c739aaca7b4fb2f8deb98d34Укуренные / Cheech and Chongs Up in Smoke (Лу Адлер, Томми Чонг, комедия, музыка, 1978) [HDTV 1080i, Профессиональный (одноголосый) (Петр Гланц) + Оригинал] Укуренные / Cheech and Chongs Up in Smoke (Лу Адлер, Томми Чонг, комедия, музыка, 1978) [HDTV 1080i, Профессиональный (одноголосый) (Петр Гланц) + Оригинал] " />

Аплоадер: Админ, дата: 8-01-2012, 19:29, торрент скачан: 359 раз

Понравилась раздача? Посмотрите эти:
  • Rihanna / What Now [2013, R&B, HDTV]
  • Enrique Iglesias / Heart Attack [2013, Pop, HDTV]
  • Чич и Чонг: Не детский мульт / Укуренные / Cheech & Chongs Animated Movie ( ...
  • Чемпионат Англии 2012-2013 / 36-й тур / Манчестер Юнайтед - Челси / Спорт 1 ...
  • Чемпионат Испании 2012-13 / 34-й тур / Реал Мадрид - Вальядолид / НТВ+ [04. ...
  • Нубы / Noobz (Блейк Фриман, Комедия, 2012) [BDRemux 1080p, Профессиональный ...
  • Водитель / The Driver (Уолтер Хилл, Боевик, триллер, драма, криминал, 1978) ...
  • Цельнометаллическая оболочка / Full Metal Jacket (Стэнли Кубрик, драма, вое ...
  • Укуренные / Cheech and Chongs Up in Smoke (Лу Адлер, Томми Чонг, комедия, 1 ...
  • Персонаж / Stranger Than Fiction (Марк Форстер, Комедия, драма, фантастика, ...
  • Идеальный Голос / Pitch Perfect (Джейсон Мур, Комедия, музыка, 2012) [BDRip ...
  • Дым / Smoke (Уэйн Ван, Пол Остер, Драма, Комедия, 1995) [BDRip 1080р, Профе ...
  • Чемпионат Испании 2011-12 / 35-й тур / Барселона - Реал / Футбол HD [Футбол ...
  • Блудливая Калифорния / Californication // Сезон 5, Эпизоды с 1 по 12 (из 12 ...
  • Mick Jagger / SNL [2012, Rock, HDTV 1080i]
  • Rihanna / Diamonds (Victorias Secret) [2012, RnB, HDTV 1080i]
  • Голос // Выпуск 13 / Суперфинал (ТВ-шоу, 29.12.2012) [HDTV |1080i|, Не треб ...
  • (1978) VA / Up In Smoke / Укуренные (OST) [MP3, 320 kbps/CBR]
  • Дневники разработчиков Nissan GT-R / The GT-R Legend (Хакидо Санир, Докумен ...
  • Выжить любой ценой - Сезон 7 / Ultimate Survival - Season 7 (Документальный ...
  • Информация
    Посетители, находящиеся в группе Гости, не могут оставлять комментарии к данной публикации.