вход на сайт

Имя пользователя :
Пароль :

Восстановление пароля Регистрация
Козырные тузы / Smokin Aces (Джо Карнахан / Joe Carnahan, боевик, триллер, драма, криминал, 2006) [BDRip 720p, Дублированный + Оригинал + Комментарии + Субтитры (rus, ukr, eng)]
Рейтинг:
(голосов: 1)



[img]{THEME}/images/logopost.png[/img]



Козырные тузы | Smokin Aces
«Ваши карты будут биты»

Год выпуска: 2006
Страна: США , Франция , Великобритания
Производство: Relativity Media, Scion Films Limited, Studio Canal, Universal Pictures, Working Title Films
Жанр: боевик, триллер, драма, криминал

Режиссёр: Джо Карнахан / Joe Carnahan
В ролях: Бен Аффлек, Райан Рейнольдс, Джейсон Бейтман, Джозеф Рускин, Энди Гарсиа, Алекс Рокко, Алишиа Кис, Вейн Ньютон, Рэй Лиотта, Джереми Пивен, Питер Берг, Мартин Хендерсон

Перевод: Дублированный + Оригинал (английский) + Комментарии (на английском)
Субтитры: Russian (надписи и пр.), Russian, Ukrainian, Russian (комментарии), English, English (comments)

Описание: Бывший протеже гангстерского босса, успешный сценичный комик, решает выступить в суде со свидетельствами против своих бывших друзей. За его голову гангстерами назначена награда в 1 миллион долларов. ФБР всячески пытается укрыть его до суда, но он периодически упорно появляется на людях, привлекая, словно свет в ночи, десятки наемных убийц.Дата премьеры (мир): 9 декабря 2006
Дата премьеры (РФ): 25 января 2007, «UIP»
Знаете ли вы, что... ▼Мастер перевоплощения Ласло Суут имеет очень большое внешнее сходство с Чикатило (широко известное фото после ареста).
Мастер боли Паскуаль Акоста имеет прозвище «El Estrago» (исп): урон, разрушение, разорение (причинённые стихией, войной); вред, ущерб (тж перен.); жертвы (эпидемии и т.п.)
Режиссёр фильма Джо Карнахан сам засветился в эпизоде: он был одним из налётчиков в чёрных масках, садящимся в фургон в начале фильма.
Качество: BDRip 720p (Исходник: Blu-Ray)
Продолжительность: 01:48:47

Релиз от:

Формат: MKV
Видео кодек: x264
Аудио кодек: DTS, AC3
Видео: 1280x544 (2.35:1) at 23.976 fps, [email protected], ~6145 kbps avg, 0.368 Bits/(Pixel*Frame)
Аудио1: 48 kHz, DTS, 3/2 (L,C,R,l,r) + LFE ch, ~768.00 kbps avg |Дубляж|
Аудио2: 48 kHz, DTS, 3/2 (L,C,R,l,r) + LFE ch, ~1536.00 kbps avg
Аудио3: 48 kHz, AC3, 2/0 (L,R) ch, ~192.00 kbps avg |Commentary|
MediaInfo ▼TextVideo
ID : 1
Format : AVC
Format/Info : Advanced Video Codec
Format profile : [email protected]
Format settings, CABAC : Yes
Format settings, ReFrames : 8 frames
Codec ID : V_MPEG4/ISO/AVC
Duration : 1h 48mn
Bit rate : 6 145 Kbps
Width : 1 280 pixels
Height : 544 pixels
Display aspect ratio : 2.35:1
Frame rate : 23.976 fps
Color space : YUV
Chroma subsampling : 4:2:0
Bit depth : 8 bits
Scan type : Progressive
Bits/(Pixel*Frame) : 0.368
Stream size : 4.54 GiB (69%)
Title : Release for HDCLUB
Writing library : x264 core 84 r1400M 20fa784
Encoding settings : cabac=1 / ref=8 / deblock=1:-3:-3 / analyse=0x3:0x113 / me=umh / subme=9 / psy=1 / psy_rd=1.0:0.0 / mixed_ref=1 / me_range=32 / chroma_me=1 / trellis=2 / 8x8dct=1 / cqm=0 / deadzone=21,11 / fast_pskip=0 / chroma_qp_offset=-2 / threads=12 / sliced_threads=0 / nr=0 / decimate=0 / mbaff=0 / constrained_intra=0 / bframes=8 / b_pyramid=2 / b_adapt=2 / b_bias=0 / direct=3 / wpredb=1 / wpredp=2 / keyint=240 / keyint_min=24 / scenecut=40 / intra_refresh=0 / rc_lookahead=80 / rc=2pass / mbtree=1 / bitrate=6145 / ratetol=1.0 / qcomp=0.80 / qpmin=10 / qpmax=51 / qpstep=4 / cplxblur=20.0 / qblur=0.5 / vbv_maxrate=50000 / vbv_bufsize=62500 / ip_ratio=1.40 / aq=1:0.80 / pulldown=0 / nal_hrd=0
Language : English

Audio #1
ID : 2
Format : DTS
Format/Info : Digital Theater Systems
Codec ID : A_DTS
Duration : 1h 48mn
Bit rate mode : Constant
Bit rate : 754 Kbps
Channel(s) : 6 channels
Channel positions : Front: L C R, Side: L R, LFE
Sampling rate : 48.0 KHz
Bit depth : 24 bits
Compression mode : Lossy
Stream size : 587 MiB (9%)
Title : DTS 5.1 @ 768 kbps - Дублированный
Language : Russian

Audio #2
ID : 3
Format : DTS
Format/Info : Digital Theater Systems
Codec ID : A_DTS
Duration : 1h 48mn
Bit rate mode : Constant
Bit rate : 1 510 Kbps
Channel(s) : 6 channels
Channel positions : Front: L C R, Side: L R, L
41ce5655ba659aea3c55db23c309d442d4a0880fКозырные тузы / Smokin Aces (Джо Карнахан / Joe Carnahan, боевик, триллер, драма, криминал, 2006) [BDRip 720p, Дублированный + Оригинал + Комментарии + Субтитры (rus, ukr, eng)] Козырные тузы / Smokin Aces (Джо Карнахан / Joe Carnahan, боевик, триллер, драма, криминал, 2006) [BDRip 720p, Дублированный + Оригинал + Комментарии + Субтитры (rus, ukr, eng)] " />

Аплоадер: Админ, дата: 28-12-2011, 18:24, торрент скачан: 359 раз

Понравилась раздача? Посмотрите эти:
  • Паркер / Parker (Тейлор Хэкфорд, Боевик, триллер, криминал, 2013) [BDRip 7 ...
  • Обливион / Oblivion (Джозеф Косински, Фантастика, боевик, триллер, приключе ...
  • Заложница 2 [Театральная версия] / Taken 2 [Theatrical Cut] (Оливье Мегатон ...
  • Козырные тузы / Smokin Aces (Джо Карнахан, Боевик, триллер, драма, криминал ...
  • Козырные тузы 2. Бал смерти / Smokin Aces 2: Assassins Ball (П.Дж. Пеше, бо ...
  • Козырные тузы / Smokin Aces (Джо Карнахан, боевик, триллер, драма, криминал ...
  • Козырные тузы / Smokin Aces (Джо Карнахан / Joe Carnahan, боевик, триллер, ...
  • Козырные тузы / Smokin Aces (Джо Карнахан / Joe Carnahan, боевик, триллер, ...
  • Команда «А» / The A-Team (Джо Карнахан, боевик, триллер, комедия, приключен ...
  • Исходный код / Source Code (Дункан Джонс, фантастика, боевик, триллер, 2011 ...
  • Козырные тузы / Smokin Aces (Джо Карнахан, Боевик, триллер, драма, криминал ...
  • Профессионал / Killer Elite (Гэри МакКендри, Боевик, Триллер, Криминал, 201 ...
  • Схватка / The Grey (Джо Карнахан, Боевик, 2012) [BDRip 720p, Профессиональн ...
  • Код Доступа «Кейптаун» / Safe House (Дэниэл Эспиноза, боевик, триллер, крим ...
  • Закон доблести / Act of Valor (Майк МакКой, Скотт Во, боевик, триллер, прик ...
  • Рейд / Serbuan maut (Гарет Эванс, Боевик, триллер, криминал, 2011) [BDRip 7 ...
  • Ворон / The Raven (Джеймс МакТиг, Триллер, детектив, 2012) [BDRip 720p, Дуб ...
  • Эволюция Борна / The Bourne Legacy (Тони Гилрой, Боевик, триллер, детектив, ...
  • Козырные тузы / Smokin Aces (Джо Карнахан, Боевик, Триллер, Драма, Криминал ...
  • Козырные тузы / Smokin Aces (Джо Карнахан, боевик, 2006) [HDRip-AVC, профес ...
  • Информация
    Посетители, находящиеся в группе Гости, не могут оставлять комментарии к данной публикации.