вход на сайт

Имя пользователя :
Пароль :

Восстановление пароля Регистрация
Один дома 2: Затерянный в Нью-Йорке / Home Alone 2: Lost in New York (Крис Коламбус, комедия, приключения, семейный, 1992) [BDRip 1080p, Дубляж + профессиональный (многоголосый закадровый) + Авторский (А.Михалев, В. Горчаков) + оригинал]
Рейтинг:
(голосов: 1)



[img]{THEME}/images/logopost.png[/img]



Один дома 2: Затерянный в Нью-Йорке / Home Alone 2: Lost in New York

«First, he was home alone, now hes lost in New York»

Год выпуска: 1992
Страна: США
Производство: Twentieth Century Fox Film Corporation
Жанр: комедия, приключения, семейный

Режиссёр: Крис Коламбус
В ролях: Маколей Калкин, Джо Пеши, Дэниел Стерн, Кэтрин О’Хара, Джон Хёрд, Девин Рэтрей, Хиллари Вульф, Морин Элизабет Шэй, Майкл С. Маронна, Джерри Бэммен

Перевод: профессиональный (полное дублирование, Blu-Ray CEE) + профессиональный (многоголосый закадровый) + украинский (многоголосый закадровый, Новый канал) + Авторский (одноголосый закадровый, А.Михалев, В. Горчаков) + оригинал
Субтитры:русские, английские

Описание
Самый маленький герой Америки устраивает большой переполох в Нью-Йорке! Кевин МакКалистер вернулся! Но теперь он один не дома, а в Нью-Йорке и у него достаточно денег и кредитных карточек, чтобы превратить Большое Яблоко в собственную площадку для игр.
Но, как всегда, Кевину не суждено быть долго одному: его старые приятели ― жулики Гарри и Марв ― сбежали из тюрьмы, куда они попали стараниями Кевина. И надо же им было попасть именно в тот город, где Кевин планировал поразвлечься! Новые западни и ловушки уже ждут горе-бандитов.



Доп. информация

Рейтинг MPAA ▼
рекомендуется присутствие родителей

MediaInfo ▼TextGeneral
Format : Matroska
Format version : Version 2
File size : 12.3 GiB
Duration : 2h 0mn
Overall bit rate : 14.7 Mbps
Encoded date : UTC 2009-12-01 16:42:04
Writing application : mkvmerge v2.9.7 (Tenderness) built on Jul 1 2009 18:43:35
Writing library : libebml v0.7.7 + libmatroska v0.8.1

Video
ID : 1
Format : AVC
Format/Info : Advanced Video Codec
Format profile : [email protected]
Format settings, CABAC : Yes
Format settings, ReFrames : 4 frames
Codec ID : V_MPEG4/ISO/AVC
Duration : 2h 0mn
Bit rate : 9 032 Kbps
Width : 1 920 pixels
Height : 1 040 pixels
Display aspect ratio : 16:9
Frame rate : 23.976 fps
Color space : YUV
Chroma subsampling : 4:2:0
Bit depth : 8 bits
Scan type : Progressive
Bits/(Pixel*Frame) : 0.189
Stream size : 7.34 GiB (59%)
Writing library : x264 core 79 r1342 e8501ef
Encoding settings : cabac=1 / ref=4 / deblock=1:-2:-2 / analyse=0x3:0x113 / me=umh / subme=10 / psy=1 / psy_rd=0.9:0.2 / mixed_ref=1 / me_range=32 / chroma_me=1 / trellis=2 / 8x8dct=1 / cqm=0 / deadzone=21,11 / chroma_qp_offset=-3 / threads=6 / nr=0 / decimate=1 / mbaff=0 / constrained_intra=0 / bframes=6 / b_pyramid=2 / b_adapt=2 / b_bias=0 / direct=1 / wpredb=1 / wpredp=2 / keyint=250 / keyint_min=25 / scenecut=40 / rc_lookahead=0 / rc=2pass / mbtree=0 / bitrate=9032 / ratetol=1.0 / qcomp=0.60 / qpmin=10 / qpmax=51 / qpstep=4 / cplxblur=20.0 / qblur=0.5 / vbv_maxrate=50000 / vbv_bufsize=62500 / ip_ratio=1.40 / pb_ratio=1.30 / aq=1:1.00

Audio #1
ID : 2
Format : DTS
Format/Info : Digital Theater Systems
Codec ID : A_DTS
Duration : 2h 0mn
Bit rate mode : Constant
Bit rate : 754 Kbps
Channel(s) : 6 channels
Channel positions : Front: L C R, Side: L R, LFE
Sampling rate : 48.0 KHz
Bit depth : 24 bits
Compression mode : Lossy
Stream size : 648 MiB (5%)
Title : DUB
Language : Russian

Audio #2
ID : 3
Format : AC-3
Format/Info : Audio Coding 3
Mode extension : CM (complete main)
Codec ID : A_AC3
Duration : 2h 0mn
Bit rate mode : Constant
Bit rate : 384 Kbps
Channel(s) : 6 channels
Channel positions : Front: L C R, Side: L R, LFE
Sampling rate : 48.0 KHz
Bit depth : 16 bits
Compression mode : Lossy
Stream size : 330 MiB (3%)
Title : MVO
Language : Russian

Audio #3
ID : 4
Format : DTS
Format/Info : Digital Theater Systems
Codec ID : A_DTS
Duration : 2h 0mn
Bit rate mode : Constant
Bit rate : 1 510 Kbps
Channel(s) : 6 channels
Channel positions : Front: L C R, Side: L R, LFE
Sampling rate : 48.0 KHz
Bit depth : 24 bits
Compression mode : Lossy
Stream size : 1.27 GiB (10%)
Title : MVO
Language : Ukrainian

Audio #4
ID : 5
Format : DTS
Format/Info : Digital Theater Systems
df7d82ed6d41cde89e01d4440e9996484a54ab41Один дома 2: Затерянный в Нью-Йорке / Home Alone 2: Lost in New York (Крис Коламбус, комедия, приключения, семейный, 1992) [BDRip 1080p, Дубляж + профессиональный (многоголосый закадровый) + Авторский (А.Михалев, В. Горчаков) + оригинал] Один дома 2: Затерянный в Нью-Йорке / Home Alone 2: Lost in New York (Крис Коламбус, комедия, приключения, семейный, 1992) [BDRip 1080p, Дубляж + профессиональный (многоголосый закадровый) + Авторский (А.Михалев, В. Горчаков) + оригинал] " />

Аплоадер: Админ, дата: 16-12-2011, 01:34, торрент скачан: 359 раз

Понравилась раздача? Посмотрите эти:
  • Один дома / Home Alone (Крис Коламбус, комедия, семейный, 1990) [BDRip-AVC, ...
  • Ночь с Бет Купер / I Love You, Beth Cooper (Крис Коламбус, Комедия, 2009) [ ...
  • Один Дома / Home Alone (Крис Коломбус, Комедия, приключения, семейный, 1990 ...
  • Водитель / The Driver (Уолтер Хилл, Боевик, триллер, драма, криминал, 1978) ...
  • Один дома 2: Затерянный в Нью-Йорке / Home Alone 2: Lost in New York (Крис ...
  • Один дома 2: Затерянный в Нью-Йорке / Home Alone 2: Lost In New York(Крис ...
  • Один дома: Квадрология / Home Alone: Quadrology (Крис Коламбус, Крис Коламб ...
  • Один дома [Дилогия] / Home Alone [Dilogy] (Крис Коламбус,комедия, семейный, ...
  • Один дома 2: Затерянный в Нью-Йорке / Home Alone 2: Lost in New York (Крис ...
  • Один Дома [Дилогия] / Home Alone [Dilogy] (Крис Коламбус, комедия, криминал ...
  • Один Дома: Затерянный в Нью-Йорке / Home Alone 2: Lost in New York (Крис Ко ...
  • Один дома / Home Alone (Крис Коламбус, Комедия, приключения, семейный, 1990 ...
  • Один дома 2: Затерянный в Нью-Йорке / Home Alone 2: Lost in New York (Крис ...
  • Один Дома 2: Затерянный в Нью-Йорке / Home Alone 2: Lost in New York (Крис ...
  • Один дома [Дилогия] / Home Alone [Dilogy] (Крис Коламбус, Комедия, семейный ...
  • Один Дома / Home Alone (Крис Коламбус, комедия, приключения, семейный, 1990 ...
  • Феи: Потерянное сокровище / Tinker Bell and the Lost Treasur (Клэй Холл, му ...
  • Рыжий пес / Red Dog (Крив Стендерс, драма, комедия, семейный, 2011) [BDRip ...
  • Приемыш / Foster (Джонатан Ньюман, Драма, Комедия, Семейный, 2011) [BDRip 7 ...
  • Один дома 2: Затерянный в Нью-Йорке / Home Alone 2: Lost in New York (Крис ...
  • [VIDEO] Один дома 1-4 / Home Alone 1-4 (Крис Коламбyс, Раджа Госнелл, Род Д ...
  • Один дома - 2: Затерянный в Нью-Йорке / Home Alone - 2: Lost in New York (К ...
  • [EN]Один дома - 2: Затерянный в Нью-Йорке / Home Alone - 2: Lost in New Yor ...
  • [EN]Один дома - 2: Затерянный в Нью-Йорке / Home Alone - 2: Lost in New Yor ...
  • Один дома / Home Alone (Крис Коламбус, комедия, семейный, 1990) [BDRip 720p ...
  • Информация
    Посетители, находящиеся в группе Гости, не могут оставлять комментарии к данной публикации.