вход на сайт

Имя пользователя :
Пароль :

Восстановление пароля Регистрация
Один Дома / Home Alone (Крис Коламбус, комедия, приключения, семейный, 1990) [BDRip 1080p, профессиональный (многоголосый закадровый) + Авторский(А.Михалев, В.Дохалов) + оригинал]
Рейтинг:
(голосов: 1)



[img]{THEME}/images/logopost.png[/img]



Один Дома / Home Alone

«When Kevins Family Left For Vacation, They Forgot One Minor Detail: Kevin. But Dont Worry... He Cooks. He Cleans. He Kicks Some Butt.»

Год выпуска: 1990
Страна: США
Производство: Twentieth Century Fox Film Corporation
Жанр: комедия, приключения, семейный

Режиссёр: Крис Коламбус
В ролях: Маколэй Калкин, Джо Пеши, Дэниэл Стерн, Джон Херд, Кэтрин ОХара, Хиллэри Вулф, Энджела Гетлс, Лэрри Хэнкин, Робертс Блоссом, Девин Рэтрэй, Джери Бэмэн

Перевод: профессиональный (многоголосый закадровый) + профессиональный (многоголосый закадровый, Family Fan Edition) + профессиональный (многоголосый закадровый, ОРТ) +Украинский (многоголосый закадровый, Новый канал) + Авторский (одноголосый закадровый, А.Михалев, В.Дохалов) + оригинал
Субтитры:русские, английские

Описание
Американское семейство отправляется из Чикаго в Европу, но в спешке сборов бестолковые родители забывают дома… одного из своих детей. Юное создание, однако, не теряется и демонстрирует чудеса изобретательности. И когда в дом залезают грабители, им приходится не раз пожалеть о встрече с милым крошкой.



Доп. информация

Рейтинг MPAA ▼
рекомендуется присутствие родителей

Награды и премии: ▼

MediaInfo ▼TextGeneral
Format : Matroska
Format version : Version 1
File size : 12.5 GiB
Duration : 1h 42mn
Overall bit rate mode : Variable
Overall bit rate : 17.4 Mbps
Movie name : Home Alone (1990) - Release for HDCLUB
Encoded date : UTC 2009-01-09 12:56:20
Writing application : mkvmerge v2.2.0 (Turn It On Again) built on Mar 4 2008 12:58:26
Writing library : libebml v0.7.7 + libmatroska v0.8.1

Video
ID : 1
Format : AVC
Format/Info : Advanced Video Codec
Format profile : [email protected]
Format settings, CABAC : Yes
Format settings, ReFrames : 4 frames
Codec ID : V_MPEG4/ISO/AVC
Duration : 1h 42mn
Bit rate : 13.4 Mbps
Width : 1 920 pixels
Height : 1 040 pixels
Display aspect ratio : 16:9
Frame rate : 23.976 fps
Color space : YUV
Chroma subsampling : 4:2:0
Bit depth : 8 bits
Scan type : Progressive
Bits/(Pixel*Frame) : 0.279
Stream size : 9.23 GiB (74%)
Title : Release for HDCLUB
Writing library : x264 core 65 r1066M 045ae40
Encoding settings : cabac=1 / ref=4 / deblock=1:-4:-3 / analyse=0x3:0x113 / me=umh / subme=9 / psy_rd=1.6:0.0 / mixed_ref=1 / me_range=48 / chroma_me=1 / trellis=2 / 8x8dct=1 / cqm=0 / deadzone=21,11 / chroma_qp_offset=-2 / threads=2 / nr=0 / decimate=1 / mbaff=0 / bframes=8 / b_pyramid=1 / b_adapt=2 / b_bias=0 / direct=3 / wpredb=1 / keyint=250 / keyint_min=25 / scenecut=40(pre) / rc=2pass / bitrate=13371 / ratetol=100.0 / qcomp=0.60 / qpmin=10 / qpmax=51 / qpstep=4 / cplxblur=20.0 / qblur=0.5 / vbv_maxrate=50000 / vbv_bufsize=50000 / ip_ratio=1.40 / pb_ratio=1.30 / aq=1:0.84
Language : English

Audio #1
ID : 2
Format : AC-3
Format/Info : Audio Coding 3
Mode extension : CM (complete main)
Codec ID : A_AC3
Duration : 1h 42mn
Bit rate mode : Constant
Bit rate : 384 Kbps
Channel(s) : 6 channels
Channel positions : Front: L C R, Side: L R, LFE
Sampling rate : 48.0 KHz
Bit depth : 16 bits
Compression mode : Lossy
Stream size : 283 MiB (2%)
Title : AC3 5.1 @ 384 kbps - Многоголосый закадровый
Language : Russian

Audio #2
ID : 3
Format : AC-3
Format/Info : Audio Coding 3
Mode extension : CM (complete main)
Codec ID : A_AC3
Duration : 1h 42mn
Bit rate mode : Constant
Bit rate : 192 Kbps
Channel(s) : 2 channels
Channel positions : Front: L R
Sampling rate : 48.0 KHz
Bit depth : 16 bits
Compression mode : Lossy
Stream size : 141 MiB (1%)
Title : AC3 2.0 @ 192 kbps - Многоголосый закадровый (Family Fun Edition)
Language : Russian

Audio #3
ID : 4
Format : AC-3
Format/Info : Audio Coding 3
Mode extension : CM (complete main)
Codec ID : A_AC3
Duration : 1h 42mn
Bit rate mode : Constant
Bit rate : 192 Kbps
Channel(s) : 2 channels
Channel positions : Front: L R
Sampling rate : 48.0 KHz
Bit depth : 16 bits
Compression mode : Lossy
Stream size : 141 MiB (1%)
21d32c3309bcfc7f46b75d895aa34613e3a653ffОдин Дома / Home Alone (Крис Коламбус, комедия, приключения, семейный, 1990) [BDRip 1080p, профессиональный (многоголосый закадровый) + Авторский(А.Михалев, В.Дохалов) + оригинал] Один Дома / Home Alone (Крис Коламбус, комедия, приключения, семейный, 1990) [BDRip 1080p, профессиональный (многоголосый закадровый) + Авторский(А.Михалев, В.Дохалов) + оригинал] " />

Аплоадер: Админ, дата: 16-12-2011, 01:31, торрент скачан: 359 раз

Понравилась раздача? Посмотрите эти:
  • Один дома / Home Alone (Крис Коламбус, комедия, семейный, 1990) [BDRip-AVC, ...
  • Один дома / Home Alone (Крис Коламбус, комедия, семейный, 1990) [BDRip 720p ...
  • За кадром... / In a World...(Лэйк Белл, комедия, 2013) [BDRip-AVC, Професси ...
  • Один дома / Home Alone (Крис Коламбус, Комедия, семейный, 1990) [BDRip, Про ...
  • Ночь с Бет Купер / I Love You, Beth Cooper (Крис Коламбус, Комедия, 2009) [ ...
  • Один Дома / Home Alone (Крис Коломбус, Комедия, приключения, семейный, 1990 ...
  • Смерть на похоронах / Death at a Funeral (Нил ЛаБут, комедия, 2010) [BDRip ...
  • [iPhone, iPod] Один Дома [Дилогия] / Home Alone [Dilogy](Крис Коламбус, ком ...
  • Отдел 13 / Diamant 13 (Гайллз Бэхат, Боевик, триллер, криминал, 2009) [BDRi ...
  • Водитель / The Driver (Уолтер Хилл, Боевик, триллер, драма, криминал, 1978) ...
  • Один дома [Дилогия] / Home Alone [Dilogy] (Крис Коламбус,комедия, семейный, ...
  • Один Дома [Дилогия] / Home Alone [Dilogy] (Крис Коламбус, комедия, криминал ...
  • Цельнометаллическая оболочка / Full Metal Jacket (Стэнли Кубрик, драма, вое ...
  • Персонаж / Stranger Than Fiction (Марк Форстер, Комедия, драма, фантастика, ...
  • Охота за "Красным Октябрём" / The Hunt for "Red October" (Джон МакТирнан, б ...
  • Один дома / Home Alone (Крис Коламбус, Комедия, приключения, семейный, 1990 ...
  • [3D] Призраки дома Винчестеров в 3Д / Haunting of Winchester House in 3D (М ...
  • Один дома [Дилогия] / Home Alone [Dilogy] (Крис Коламбус, Комедия, семейный ...
  • Один дома 2: Затерянный в Нью-Йорке / Home Alone 2: Lost in New York (Крис ...
  • Чернокнижник / Warlock (Стив Майнер, ужасы, фэнтези, боевик, триллер, 1989) ...
  • Один дома / Home Alone (Крис Коламбус, Комедия, приключения, семейный, 1990 ...
  • Викинги / Outlander (Ховард МакКейн, Фантастика, боевик, приключения, 2008) ...
  • PBS: Природа – Гималаи / PBS: Nature – The Himalayas (Крис Морган, Докумен ...
  • Один дома /Home Alone (Крис Коламбус, Комедия, 1990) [DVDRip, Закадровый (о ...
  • Один дома / Home Alone (Крис Коламбус, комедия, семейный, 1990) [BDRip 720p ...
  • Информация
    Посетители, находящиеся в группе Гости, не могут оставлять комментарии к данной публикации.