вход на сайт

Имя пользователя :
Пароль :

Восстановление пароля Регистрация
Ковбои против пришельцев / Cowboys & Aliens(Джон Фавро, фантастика, боевик, триллер, вестерн, 2011) [BDRip 1080p, полное дублирование + оригинал + субтитры]
Рейтинг:
(голосов: 1)



[img]{THEME}/images/logopost.png[/img]



Ковбои против пришельцев / Cowboys & Aliens
«First contact. Last stand.»

Год выпуска: 2011
Страна: США, Индия
Производство: DreamWorks SKG, Paramount Pictures
Жанр: фантастика, боевик, триллер, вестерн
Режиссёр: Джон Фавро
В ролях: Дэниэл Крэйг, Харрисон Форд, Оливия Уайлд, Эбигейл Спенсер, Бак Тейлор, Мэттью Тейлор, Купер Тейлор, Клэнси Браун, Пол Дано, Крис Браунинг, Адам Бич
Перевод: полное дублирование + оригинал
Субтитры: Русские (форсированные / полные), английские
Описание:
1873, Абсолюшен, штат Аризона. В эту глухую американскую провинцию прибывает потерявший память незнакомец. Единственный намек на его прошлое — это странные кандалы на одном из его запястий. Странник быстро узнает, что жители городка не рады незнакомцам, да и вообще они выходят на улицы лишь по приказу полковника Долархайда, правящего в этой местности железной рукой.

Вскоре странное поведение жителей объясняется. Периодически с неба обрушиваются ужасающие создания, которые забирают все, что им заблагорассудится и держат город в паническом страхе. Главный герой, постепенно вспоминающий о том, что с ним произошло, становится единственной надеждой города на спасение.

Качество: BDRip 1080p
Продолжительность: 01:58:13
Формат: MKV
Видео кодек: AVC
Аудио кодек: AC3, DTS
Формат видео: 1920x800p, (2.40:1), 23,976 fps, 11,7 Мбит/сек, 0.318 bit/pixel
Формат аудио:
Русский (АС3, 6 ch, 640 Кбит/с)
английский (DTS, 6 ch, 1536 Кбит/с)

MediaInfo ▼
Text
Общее
Уникальный идентификатор : 215077554871281770175317216100106043505 (0xA1CE6E2A0E4246A5ADB9A1C35F770071)
Полное имя : E:Kovboi.protiv.prisheltzev.2011.D.BDRip.1080p.mkv
Формат : Matroska
Версия формата : Version 2
Размер файла : 11,7 Гбайт
Продолжительность : 1 ч. 58 м.
Общий поток : 14,1 Мбит/сек
Дата кодирования : UTC 2011-12-08 07:36:19
Программа кодирования : mkvmerge v3.4.0 (Rapunzel) built on May 15 2010 09:38:20
Библиотека кодирования : libebml v0.8.0 + libmatroska v0.9.0

Видео
Идентификатор : 1
Формат : AVC
Формат/Информация : Advanced Video Codec
Профиль формата : [email protected]
Параметр CABAC формата : Да
Параметр ReFrames формата : 2 кадра
Идентификатор кодека : V_MPEG4/ISO/AVC
Продолжительность : 1 ч. 58 м.
Вид битрейта : Переменный
Битрейт : 11,7 Мбит/сек
Максимальный битрейт : 40,0 Мбит/сек
Ширина : 1920 пикс.
Высота : 800 пикс.
Соотношение сторон : 2,40:1
Частота кадров : 23,976 кадр/сек
Цветовое пространство : YUV
Подвыборка цветности : 4:2:0
Битовая глубина : 8 бит
Тип развёртки : Прогрессивная
Бит/(Пиксели*Кадры) : 0.318
Размер потока : 9,68 Гбайт (83%)
Библиотека кодирования : x264 core
Основные цвета : BT.709-5, BT.1361, IEC 61966-2-4, SMPTE RP177
Характеристики трансфера : BT.709-5, BT.1361
Коэффициенты матрицы : BT.709-5, BT.1361, IEC 61966-2-4 709, SMPTE RP177

Аудио #1
Идентификатор : 2
Формат : AC-3
Формат/Информация : Audio Coding 3
Расширение режима : CM (complete main)
Идентификатор кодека : A_AC3
Продолжительность : 1 ч. 58 м.
Вид битрейта : Постоянный
Битрейт : 640 Кбит/сек
Каналы : 6 каналов
Расположение каналов : Front: L C R, Side: L R, LFE
Частота : 48,0 КГц
Битовая глубина : 16 бит
Метод сжатия : С потерями
Размер потока : 541 Мбайт (5%)
Заголовок : Russian @ DD 5.1 @ 640 kbps
Язык : Russian

Аудио #2
Идентификатор : 3
Формат : DTS
Формат/Информация : Digital Theater Systems
Идентификатор кодека : A_DTS
Продолжительность : 1 ч. 58 м.
Вид битрейта : Постоянный
Битрейт : 1510 Кбит/сек
Каналы : 6 каналов
Расположение каналов : Front: L C R, Side: L R, LFE
Частота : 48,0 КГц
Битовая глубина : 24 бит
Метод сжатия : С потерями
 
215ae7dc5953ea650855b0fa9bb8fd466be45cbbКовбои против пришельцев / Cowboys & Aliens(Джон Фавро, фантастика, боевик, триллер, вестерн, 2011) [BDRip 1080p, полное дублирование + оригинал + субтитры] Ковбои против пришельцев / Cowboys & Aliens(Джон Фавро, фантастика, боевик, триллер, вестерн, 2011) [BDRip 1080p, полное дублирование + оригинал + субтитры] " />

Аплоадер: Админ, дата: 10-12-2011, 11:50, торрент скачан: 359 раз

Понравилась раздача? Посмотрите эти:
  • Копы в юбках / The Heat [UNRATED] (Пол Фиг, комедия, криминал, боевик, дете ...
  • Исходный код / Source Code (Дункан Джонс, фантастика, боевик, триллер, драм ...
  • G.I. Joe: Бросок кобры 2 [Театральная версия] / G.I. Joe: Retaliation [Thea ...
  • Ковбои против пришельцев / Cowboys & Aliens (Джон Фавро, фантастика, боевик ...
  • Ковбои против пришельцев / Cowboys & Aliens(Джон Фавро, фантастика, боевик, ...
  • Ковбои против пришельцев / Cowboys & Aliens (Джон Фавро, фантастика, боевик ...
  • Ковбои против пришельцев / Cowboys & Aliens [Театральная версия](Джон Фавро ...
  • Ковбои против пришельцев / Cowboys & Aliens (Джон Фавро, Фантастика, 2011) ...
  • Ковбои против пришельцев / Cowboys & Aliens [Расширенная версия](Джон Фавро ...
  • Форсаж 5 / Fast Five (Джастин Лин, боевик, триллер, драма, криминал, 2011) ...
  • Козырные тузы / Smokin Aces (Джо Карнахан, Боевик, триллер, драма, криминал ...
  • Ковбои против пришельцев / Cowboys & Aliens (Джон Фавро, фантастика, боевик ...
  • Ковбои против пришельцев / Cowboys & Aliens (Джон Фавро, Фантастика, 2011) ...
  • Заражение / Contagion (Стивен Содерберг, Фантастика, 2011) [BDRip 1080p, Пр ...
  • Стыд / Shame (Стив МакКуин, драма, 2011) [BDRip 1080p, полное дублирование, ...
  • Транзит / Transit (Антонио Негрет, боевик, триллер, драма, криминал, 2011) ...
  • Хищники / Predators (Нимрод Антал, Фантастика, Боевик, Триллер, Приключения ...
  • Мстители / The Avengers (Джосс Уидон, фантастика, боевик, триллер, 2012) [B ...
  • Сид, инструкция по выживанию / Surviving Sid (Гален Т. Чу, Карен Дишер, мул ...
  • Ковбои против пришельцев / Cowboys & Aliens (Джон Фавро, Фантастика, Боевик ...
  • Ковбои против пришельцев / Cowboys & Aliens(Джон Фавро, фантастика, боевик, ...
  • Ковбои против пришельцев / Cowboys & Aliens (Джон Фавро, фантастика, боевик ...
  • Ковбои против пришельцев / Cowboys & Aliens (Джон Фавро, фантастика, боевик ...
  • Ковбои против пришельцев / Cowboys & Aliens (Джон Фавро, фантастика, боевик ...
  • Ковбои против пришельцев [Расширенная версия] / Cowboys & Aliens [Extended ...
  • Информация
    Посетители, находящиеся в группе Гости, не могут оставлять комментарии к данной публикации.