вход на сайт

Имя пользователя :
Пароль :

Восстановление пароля Регистрация
Прислуга / The Help (Тейт Тейлор, драма, 2011) [BDRemux 1080p, Профессиональный (многоголосый закадровый), оригинал, комментарии + субтитры]
Рейтинг:
(голосов: 1)



[img]{THEME}/images/logopost.png[/img]



Прислуга / The Help
«Change begins with a whisper.»

Год выпуска: 2011
Страна: США, Индия, ОАЭ
Производство: DreamWorks SKG
Жанр: драма
Режиссёр: Тейт Тейлор
В ролях: Эмма Стоун, Виола Дэвис, Брайс Даллас Ховард, Октавия Спенсер, Джессика Честейн, Ана О’Райли, Эллисон Джэнни, Анна Кэмп, Элинор Генри, Эмма Генри
Перевод: Профессиональный (многоголосый закадровый) [Blu-ray], оригинал, комментарии
Субтитры: русские(forced,full),украинские,английские
Описание:
Американский Юг, на дворе 1960-е годы. Скитер только-только закончила университет и возвращается домой, в сонный городок Джексон, где никогда ничего не происходит. Она мечтает стать писательницей, вырваться в большой мир. Но для приличной девушки с Юга не пристало тешиться столь глупыми иллюзиями, приличной девушке следует выйти замуж и хлопотать по дому.

Мудрая Эйбилин на тридцать лет старше Скитер, она прислуживает в домах белых всю свою жизнь, вынянчила семнадцать детей и давно уже ничего не ждет от жизни, ибо сердце ее разбито после смерти единственного сына.

Минни — самая лучшая стряпуха во всем Джексоне, а еще она самая дерзкая служанка в городе. И острый язык не раз уже сослужил ей плохую службу. На одном месте Минни никогда подолгу не задерживается. Но с Минни лучше не связываться даже самым высокомерным белым дамочкам. Двух черных служанок и белую неопытную девушку объединяет одно — обостренное чувство справедливости и желание хоть как-то изменить порядок вещей. Смогут ли эти трое противостоять целому миру? Сумеют ли они выжить в этой борьбе?

Качество: BDRemux 1080p
Продолжительность: 02:26:14
Формат: MKV
Видео кодек: AVC
Аудио кодек: AC3, DTS
Формат видео: 1920x1080p, (16:9), 23.976 fps, 23.4 Mbps (36.0 Mbps), 0.470 bit/pixel
Формат аудио:
Аудио 1: Russian: 48 kHz, AC3, 3/2 (L,C,R,l,r) + LFE ch, ~640.00 kbps avg
Аудио 2: English / DTS-HD Master Audio / 5.1 / 48 kHz / 3668 kbps / 24-bit (DTS Core: 5.1 / 48 kHz / 1509 kbps / 24-bit)
Аудио 3: English / Dolby Digital Audio / 2.0 / 48 kHz / 320 kbps |Commentary|

MediaInfo ▼
Text
General
Unique ID : 240984555486687214878392863776222272837 (0xB54BEFE95E4104439823D8B25490DD45)
Complete name : D:DownloadsВидеоThe Help.2011.BluRay-Remux.1080p.mkv
Format : Matroska
File size : 28.2 GiB
Duration : 2h 26mn
Overall bit rate : 27.6 Mbps
Movie name : -Talian-
Encoded date : UTC 2011-11-18 15:35:55
Writing application : mkvmerge v3.3.0 (Language) сборка от May 14 2010 17:11:50
Writing library : libebml v0.8.0 + libmatroska v0.9.0

Video
ID : 1
Format : AVC
Format/Info : Advanced Video Codec
Format profile : [email protected]
Format settings, CABAC : Yes
Format settings, ReFrames : 4 frames
Format settings, GOP : M=3, N=26
Codec ID : V_MPEG4/ISO/AVC
Duration : 2h 26mn
Bit rate mode : Variable
Bit rate : 23.4 Mbps
Maximum bit rate : 36.0 Mbps
Width : 1 920 pixels
Height : 1 080 pixels
Display aspect ratio : 16:9
Frame rate : 23.976 fps
Color space : YUV
Chroma subsampling : 4:2:0
Bit depth : 8 bits
Scan type : Progressive
Bits/(Pixel*Frame) : 0.470
Stream size : 23.9 GiB (85%)
Title : The Help.2011.BluRay-Remux.1080p
Language : English

Audio #1
ID : 2
Format : AC-3
Format/Info : Audio Coding 3
Mode extension : CM (complete main)
Codec ID : A_AC3
Duration : 2h 26mn
Bit rate mode : Constant
Bit rate : 640 Kbps
Channel(s) : 6 channels
Channel positions : Front: L C R, Side: L R, LFE
Sampling rate : 48.0 KHz
Bit depth : 16 bits
Compression mode : Lossy
Stream size : 669 MiB (2%)
Title : MVO-Blu-ray
Language : Russian

Audio #2
ID : 3
Format : DTS
Format/Info : Digital Theater Systems
Format profile : MA / Core
Codec ID : A_DTS
Duration : 2h 26
8fb841533cc494becb80b9aca76da5892395e2d2Прислуга / The Help (Тейт Тейлор, драма, 2011) [BDRemux 1080p, Профессиональный (многоголосый закадровый), оригинал, комментарии + субтитры] Прислуга / The Help (Тейт Тейлор, драма, 2011) [BDRemux 1080p, Профессиональный (многоголосый закадровый), оригинал, комментарии + субтитры] " />

Аплоадер: Админ, дата: 7-12-2011, 10:01, торрент скачан: 359 раз

Понравилась раздача? Посмотрите эти:
  • Нубы / Noobz (Блейк Фриман, Комедия, 2012) [BDRemux 1080p, Профессиональный ...
  • Прислуга / The Help (Тейт Тейлор, драма, 2011) [480x272] [BDRip, Профессион ...
  • Родительский беспредел / Parental Guidance (Энди Фикмен, Комедия, семейный, ...
  • Прислуга / The Help (Тейт Тейлор, Драма, 2011) [BDRip - AVC, Профессиональн ...
  • Прислуга | The Help (Тейт Тейлор, драма, 2011) [HDRip-AVC, Профессиональный ...
  • Прислуга / The Help (Тейт Тейлор,драма,2011) [HDRip-AVC,Профессиональный (м ...
  • Прислуга / The Help (Тейт Тейлор, драма, 2011) [BDRip-AVC, Профессиональный ...
  • Прислуга / The Help (Тейт Тейлор, драма, 2011) [BDRip-AVC, Профессиональный ...
  • Прислуга / The Help (Тейт Тейлор, драма, 2011) [BDRip-AVC, Профессиональный ...
  • Прислуга / The Help (Тейт Тейлор, Драма, 2011) [BDRip 720p, Профессиональны ...
  • Прислуга / The Help (Тейт Тейлор, Драма, 2011) [BDRip 1080p, Профессиональн ...
  • Эта - дурацкая - любовь / Crazy, Stupid, Love (Гленн Фикарра, Джон Рекуа, д ...
  • Рыжий пес / Red Dog (Крив Стендерс, драма, комедия, семейный, 2011) [BDRip ...
  • Пол: Секретный материальчик / Расширенная версия / Paul (Грег Моттола, фант ...
  • Стыд / Shame (Стив МакКуин, драма, 2011) [BDRemux 1080p, Дублированный + Од ...
  • Притворись моей женой / Just go with it (Деннис Дуган, мелодрама, комедия, ...
  • Рапунцель: Счастлива навсегда / Tangled Ever After ( Нэйтан Грено, Байрон Х ...
  • Бульвар страха / Rosewood Lane (Виктор Сальва, Ужасы, триллер, 2011) [BD-Re ...
  • Рыжий пес / Red Dog (Крив Стендерс / Kriv Stenders, Драма, комедия, семейн ...
  • Призрак в школе / Haunted High (Джеффри Скотт Ландо, ужасы, фантастика, 201 ...
  • Шкатулка проклятия / The Possession (Уле Борнедаль, ужасы, триллер, 2012) [ ...
  • Прислуга / The Help (Тейт Тейлор, драма, 2011) [HDRip, Профессиональное (мн ...
  • Прислуга / The Help (Тейт Тейлор, Драма, 2011) [BDRip, Профессиональный (мн ...
  • Прислуга / The Help (Тейт Тейлор / Tate Taylor, драма, 2011) [HDRip, Профес ...
  • Прислуга / The Help (Тейт Тейлор, драма, 2011) [BDRip, Профессиональный (мн ...
  • Информация
    Посетители, находящиеся в группе Гости, не могут оставлять комментарии к данной публикации.