вход на сайт

Имя пользователя :
Пароль :

Восстановление пароля Регистрация
Восстание планеты обезьян / Rise of the Planet of the Apes (Руперт Уайатт, фантастика, боевик, триллер, драма, 2011) [BDRip 1080p, полное дублирование, профессиональный многоголосый + оригинал + субтитры]
Рейтинг:
(голосов: 1)



[img]{THEME}/images/logopost.png[/img]



Восстание планеты обезьян / Rise of the Planet of the Apes
«Evolution Becomes Revolution»

Год выпуска: 2011
Страна: США
Производство: Chernin Entertainment, Twentieth Century Fox Film Corporation
Жанр: фантастика, боевик, триллер, драма
Режиссёр: Руперт Уайатт
В ролях: Джеймс Франко, Джон Литгоу, Фрида Пинто, Тайлер Лэбин, Брайан Кокс, Том Фелтон, Дэвид Ойелоуо, Джэми Харрис, Дэвид Хьюлетт, Ти Олссон
Перевод: полное дублирование + профессиональный многоголосый (Студия "Омикрон") + оригинал
Субтитры: Русские (форсированные, полные), английские (форсированные, полные)
Описание:
Молодой ученый испытывает на обезьянах новое лекарство от болезни Альцгеймера. У препарата обнаруживается удивительный побочный эффект, он повышает в несколько раз интеллект приматов.
IMDB: 7.80 (72 189)
КиноПоиск: 7.571 (16 246)
Качество: BDRip 1080p
Продолжительность: 01:44:56
Формат: MKV
Видео кодек: MPEG-4 AVC
Аудио кодек: DTS
Формат видео: 1920x816p, (2.35:1), 23.976 fps, 15.9 Мбит/с, 0.424 bit/pixel
Формат аудио:
Русский (AC3, 6 ch, 448 Кбит/с)
pусский (DTS, 6 ch, 1510 Кбит/с)
aнглийский (DTS, 6 ch, 1510 Кбит/с)

MediaInfo ▼
Text
General
Unique ID : 233023335035499226821573070013679799072 (0xAF4EA9703835A5348F7A8F7ECCC40B20)
Complete name : D:DownloadsВидеоRise.of.the.Planet.of.the.Apes.1080p.BluRay.x264.DTS-HDChina.mkv
Format : Matroska
File size : 14.2 GiB
Duration : 1h 44mn
Overall bit rate : 19.4 Mbps
Movie name : -Talian-
Encoded date : UTC 2011-12-04 17:48:08
Writing application : mkvmerge v5.0.1 (Es ist Sommer) built on Oct 9 2011 11:55:43
Writing library : libebml v1.2.2 + libmatroska v1.3.0

Video
ID : 1
Format : AVC
Format/Info : Advanced Video Codec
Format profile : [email protected]
Format settings, CABAC : Yes
Format settings, ReFrames : 5 frames
Codec ID : V_MPEG4/ISO/AVC
Duration : 1h 44mn
Bit rate : 15.9 Mbps
Width : 1 920 pixels
Height : 816 pixels
Display aspect ratio : 2.35:1
Frame rate : 23.976 fps
Color space : YUV
Chroma subsampling : 4:2:0
Bit depth : 8 bits
Scan type : Progressive
Bits/(Pixel*Frame) : 0.424
Stream size : 11.4 GiB (80%)
Title : Rise.of.the.Planet.of.the.Apes.1080p.BluRay.x264.DTS-HDChina
Writing library : x264 core 116 r2074 2641b9e
Encoding settings : cabac=1 / ref=5 / deblock=1:-3:-3 / analyse=0x3:0x133 / me=umh / subme=10 / psy=1 / psy_rd=1.00:0.00 / mixed_ref=1 / me_range=48 / chroma_me=1 / trellis=2 / 8x8dct=1 / cqm=0 / deadzone=21,11 / fast_pskip=1 / chroma_qp_offset=-2 / threads=12 / sliced_threads=0 / nr=0 / decimate=0 / interlaced=0 / bluray_compat=0 / constrained_intra=0 / bframes=8 / b_pyramid=2 / b_adapt=2 / b_bias=0 / direct=3 / weightb=1 / open_gop=0 / weightp=2 / keyint=250 / keyint_min=23 / scenecut=40 / intra_refresh=0 / rc_lookahead=60 / rc=2pass / mbtree=1 / bitrate=15939 / ratetol=1.0 / qcomp=0.60 / qpmin=0 / qpmax=69 / qpstep=4 / cplxblur=20.0 / qblur=0.5 / vbv_maxrate=50000 / vbv_bufsize=50000 / nal_hrd=none / ip_ratio=1.50 / aq=1:1.00
Language : English

Audio #1
ID : 2
Format : AC-3
Format/Info : Audio Coding 3
Mode extension : CM (complete main)
Codec ID : A_AC3
Duration : 1h 44mn
Bit rate mode : Constant
Bit rate : 448 Kbps
Channel(s) : 6 channels
Channel positions : Front: L C R, Side: L R, LFE
Sampling rate : 48.0 KHz
Bit depth : 16 bits
Compression mode : Lossy
Stream size : 336 MiB (2%)
Title : DUB
Language : Russian

Audio #2
ID : 3
Format : DTS
Format/Info : Digital Theater Systems
Codec ID : A_DTS
Duration : 1h 44mn
Bit rate mode : Constant
Bit rate : 1 510 Kbps
Channel(s) : 6 channels
Channel positions : Front: L C R, Side: L R, LFE
Sampling rate : 48.0 KHz
Bit depth : 24
1db33408156aa4de22e3b40f6e74961cb075933aВосстание планеты обезьян / Rise of the Planet of the Apes (Руперт Уайатт, фантастика, боевик, триллер, драма, 2011) [BDRip 1080p, полное дублирование, профессиональный многоголосый + оригинал + субтитры] Восстание планеты обезьян / Rise of the Planet of the Apes (Руперт Уайатт, фантастика, боевик, триллер, драма, 2011) [BDRip 1080p, полное дублирование, профессиональный многоголосый + оригинал + субтитры] " />

Аплоадер: Админ, дата: 5-12-2011, 10:36, торрент скачан: 359 раз

Понравилась раздача? Посмотрите эти:
  • Пастырь / Priest (Скотт Чарльз Стюарт, ужасы, фантастика, боевик, триллер, ...
  • Восстание планеты обезьян/ Planet of the Apes(Руперт Уайатт,Фантастика,Прик ...
  • Восстание планеты обезьян/ Planet of the Apes(Руперт Уайатт,Фантастика,Прик ...
  • Восстание планеты обезьян / Rise of the Planet of the Apes (Руперт Уайатт, ...
  • Восстание планеты обезьян / Rise of the Planet of the Apes (Руперт Уайатт, ...
  • Восстание планеты обезьян / Rise of the Planet of the Apes (Руперт Уайатт, ...
  • Восстание планеты обезьян / Rise of the Planet of the Apes (Руперт Уайатт, ...
  • Восстание планеты обезьян / Rise of the Planet of the Apes (Руперт Уайатт, ...
  • Восстание планеты обезьян / Rise of the Planet of the Apes (Руперт Уайатт, ...
  • Восстание планеты обезьян / Rise of the Planet of the Apes (Руперт Уайатт, ...
  • Восстание планеты обезьян/ Planet of the Apes (Руперт Уайатт, Фантастика, П ...
  • Восстание планеты обезьян/ Planet of the Apes(Руперт Уайатт,Фантастика,Прик ...
  • Восстание планеты обезьян/ Planet of the Apes(Руперт Уайатт,Фантастика,Прик ...
  • Восстание планеты обезьян / Planet of the Apes (Руперт Уайатт, Фантастика, ...
  • Восстание планеты обезьян / Planet of the Apes(Руперт Уайатт,фантастика, бо ...
  • Восстание планеты обезьян / Planet of the Apes(Руперт Уайатт,фантастика, бо ...
  • Восстание планеты обезьян / Planet of the Apes(Руперт Уайатт,фантастика, бо ...
  • Восстание планеты обезьян / Rise of the Planet of the Apes (Руперт Уайатт, ...
  • Восстание планеты обезьян / Rise of the Planet of the Apes (Руперт Уайатт ...
  • [iPhone, iPod, iPad]Восстание планеты обезьян / Rise of the Planet of the A ...
  • Информация
    Посетители, находящиеся в группе Гости, не могут оставлять комментарии к данной публикации.