вход на сайт

Имя пользователя :
Пароль :

Восстановление пароля Регистрация
Жестокие игры / Cruel Intentions (Роджер Камбл, мелодрама, драма, 1999) [BDRip 720p, Профессиональный (многоголосый, закадровый + одноголосый + оригинал + комментарии + субтитры]
Рейтинг:
(голосов: 1)



[img]{THEME}/images/logopost.png[/img]



Жестокие игры / Cruel Intentions

Год выпуска: 1999
Страна: США
Производство: Columbia Pictures
Жанр: мелодрама, драма

Режиссёр: Роджер Камбл
В ролях: Сара Мишель Геллар, Райан Филипп, Риз Уизерспун, Сэльма Блэр, Луиза Флетчер, Джошуа Джексон, Эрик Мэбиа,с Шон Патрик Томас, Свузи Кёрц, Кристин Барански

Перевод: профессиональный (многоголосый, закадровый)/одноголосый/оригинал/английские комментарии
Субтитры: русские, английские, английские (комментарии)

Описание: Себастьян знает сладкий привкус легких побед. В его руках — чужие тайны и ключи от неприступных спален. Катрин устала от простых интриг и банальных признаний. Тогда современный Казанова и скучающая красавица придумывают себе новое развлечение. В их жестокой игре не хватает только жертвы…

IMDB: 6.8/10
КиноПоиск: 7.952/44233

Качество: BDRip 720p
Продолжительность: 01:37:28

Формат: mkv
Видео кодек: H.264
Аудио кодек: AC3/DTS
Видео: 1280x694p (16:9), 23,976 fps, MPEG4 AVC, [email protected], ~4880 kbps avg, 0.224 bit/pixel
Аудио #1: Русский 48 kHz, AC3 6 ch (Front: L C R, Side: L R, LFE), ~384 kbps avg [Профессиональный (многоголосый закадровый)R5]
Аудио #2: Русский 48 kHz, DTS 6 ch ( Front: L C R, Side: L R, LFE), ~1510 kbps avg [Авторский (одноголосый) (Ю.Живов)]
Аудио #3: Английский 48 kHz, DTS 6 ch ( Front: L C R, Side: L R, LFE), ~1510 kbps avg [Оригинал]
Аудио #4: Английский OGG 2.0, 80 kbps, 48KHz [Commentary]

MediaInfo: ▼
Общее
Уникальный идентификатор : 193896871250775674411385432492648473968 (0x91DF2DD5FD9429E8B35CCF1DEF00A570)
Полное имя : F:Tfile - Видео релизыЖестокие игры 1999 (BDRip x264 720p).mkv
Формат : Matroska
Версия формата : Version 2
Размер файла : 5,62 Гбайт
Продолжительность : 1 ч. 37 м.
Общий поток : 8257 Кбит/сек
Название фильма : Cruel Intentions (1999) 720p BDRip F4H
Дата кодирования : UTC 2010-03-22 16:16:39
Программа кодирования : mkvmerge v3.1.0 (Happy up here) built on Jan 19 2010 12:09:24
Библиотека кодирования : libebml v0.7.9 + libmatroska v0.8.1

Видео
Идентификатор : 1
Формат : AVC
Формат/Информация : Advanced Video Codec
Профиль формата : [email protected]
Параметр CABAC формата : Да
Параметр ReFrames формата : 9 кадров
Идентификатор кодека : V_MPEG4/ISO/AVC
Продолжительность : 1 ч. 37 м.
Битрейт : 4880 Кбит/сек
Ширина : 1280 пикс.
Высота : 694 пикс.
Соотношение сторон : 16:9
Частота кадров : 23,976 кадр/сек
Цветовое пространство : YUV
Подвыборка цветности : 4:2:0
Битовая глубина : 8 бит
Тип развёртки : Прогрессивная
Бит/(Пиксели*Кадры) : 0.224
Размер потока : 3,14 Гбайт (56%)
Заголовок : Cruel Intentions (1999)
Библиотека кодирования : x264 core 85 r1442kGIT 781d300
Настройки программы : cabac=1 / ref=9 / deblock=1:-3:-3 / analyse=0x3:0x113 / me=umh / subme=10 / psy=1 / psy_rd=0.90:0.10 / mixed_ref=1 / me_range=64 / chroma_me=1 / trellis=2 / 8x8dct=1 / cqm=0 / deadzone=21,11 / fast_pskip=0 / chroma_qp_offset=-3 / threads=6 / sliced_threads=0 / nr=0 / decimate=0 / mbaff=0 / interlaced=0 / constrained_intra=0 / bframes=6 / b_pyramid=2 / b_adapt=2 / b_bias=0 / direct=1 / wpredb=1 / wpredp=2 / keyint=250 / keyint_min=25 / scenecut=40 / intra_refresh=0 / rc_lookahead=60 / rc=2pass / mbtree=1 / bitrate=4780 / ratetol=1.0 / qcomp=0.60 / qpmin=10 / qpmax=51 / qpstep=4 / cplxblur=20.0 / qblur=0.5 / vbv_maxrate=50000 / vbv_bufsize=50000 / ip_ratio=1.40 / aq=1:0.80 / pulldown=0 / nal_hrd=0
Язык : English

Аудио #1
Идентификатор : 2
Формат : AC-3
Формат/Информация : Audio Coding 3
Расширение режима : CM (complete main)
Идентификатор кодека : A_AC3
Продолжительность : 1 ч. 37 м.
Вид битрейта : Постоянный
Битрейт : 384 Кбит/сек
Каналы : 6 каналов
Расположение каналов : Front: L C R, Side: L R, LFE
Частота : 48,0 КГц
Битовая глубина : 16 бит
Метод сжатия : С потерями
Размер потока : 268 Мбайт (5%)
Заголовок : AC3 5.1 384 kbps Многоголосый закадровый (R5)
Язык : Russian

18363bcd4f51d51097816632cefc5f4eba50151dЖестокие игры / Cruel Intentions (Роджер Камбл, мелодрама, драма, 1999) [BDRip 720p, Профессиональный (многоголосый, закадровый + одноголосый + оригинал + комментарии + субтитры] Жестокие игры / Cruel Intentions (Роджер Камбл, мелодрама, драма, 1999) [BDRip 720p, Профессиональный (многоголосый, закадровый + одноголосый + оригинал + комментарии + субтитры] " />

Аплоадер: Админ, дата: 4-12-2011, 22:39, торрент скачан: 359 раз

Понравилась раздача? Посмотрите эти:
  • Мэрайа Мунди и шкатулка Мидаса / The Adventurer: The Curse of the Midas Box ...
  • Джобс: Империя соблазна / jOBS (Джошуа Майкл Штерн, драма, биография, 2013) ...
  • Ночь страха 2: Свежая кровь / Fright Night 2: New Blood (Эдуардо Родригез, ...
  • Ночь страха 2: Свежая кровь / Fright Night 2: New Blood (Эдуардо Родригез, ...
  • Больше чем мёд / More Than Honey (документальный, 2012) [BDRip 720p, Профес ...
  • Летучий отряд Скотланд-Ярда / The Sweeney (Ник Лав, Боевик, драма, криминал ...
  • Порочные игры / Stoker (Пак Чхан Ук, Триллер, драма, детектив, 2013) [BDRip ...
  • Порочные игры / Stoker (Пак Чхан Ук, Триллер, драма, детектив, 2013) [BDRip ...
  • Ну ты и придурок! / You Stupid Man (Брайан Барнс, мелодрама, комедия, 2002) ...
  • Суррогат / The Sessions (Бен Луин, Драма, 2012) [BDRip-AVC, Профессиональны ...
  • Ошибка телохранителя / The Girl from the Naked Eye (Дэвид Рен, боевик, трил ...
  • Жестокие игры / Cruel Intentions
  • Жестокие игры / Cruel Intentions (Роджер Камбл /Roger Kumble,триллер, драма ...
  • Ураган / The Hurricane (Норман Джуисон, драма, биография, спорт, 1999) [HDD ...
  • Эд Вуд / Ed Wood (Тим Бёртон, драма, комедия, биография, 1994) [BDRip-AVC, ...
  • Немыслимое / Unthinkable (Грегор Джордан, триллер, драма, 2009) [BDRip 720p ...
  • Последняя любовь на Земле / Perfect Sense (Дэвид МакКензи, фантастика, драм ...
  • Бессонная ночь / Nuit blanche (Фредерик Жарден, Боевик, 2011) [BDRip 720p, ...
  • Бульвар спасения / Salvation Boulevard (Джордж Рэтлифф, Боевик, триллер, др ...
  • Павшая империя / Hirokin (Алехо Мо-Сан, фантастика, боевик, драма, приключе ...
  • Большой отрыв БОБа / B.O.B.s Big Break (Роберт Портер, короткометражка, ан ...
  • Ворон / The Crow (Алекс Пройас, фэнтези, боевик, триллер, 1994) [BDRip 720p ...
  • Жестокие игры 1, 2, 3 / Cruel Intentions 1,2,3 (США,Роджер Камбл,Комедия, Д ...
  • Жестокие игры / Cruel Intentions (Роджер Камбл, триллер, мелодрама, драма, ...
  • Жестокие игры / Cruel Intentions (Роджер Камбл,Сара Мишель Геллар, Райан Фи ...
  • Информация
    Посетители, находящиеся в группе Гости, не могут оставлять комментарии к данной публикации.