вход на сайт

Имя пользователя :
Пароль :

Восстановление пароля Регистрация
Эта - дурацкая - любовь / Crazy, Stupid, Love (Гленн Фикарра, Джон Рекуа, драма, мелодрама, комедия, 2011) [BDRemux 1080p, Дубляж + оригинал + субтитры]
Рейтинг:
(голосов: 1)



[img]{THEME}/images/logopost.png[/img]



Эта - дурацкая - любовь / Crazy, Stupid, Love

«This Is Crazy»

Год выпуска: 2011
Страна: США
Производство: Carousel Productions (II)
Жанр: драма, мелодрама, комедия

Режиссёр: Гленн Фикарра, Джон Рекуа
В ролях: Стив Карелл, Райан Гослинг, Джулианна Мур, Эмма Стоун, Аналей Типтон, Йон Бобо, Джои Кинг, Мариса Томей, Бет Литлфорд, Джон Кэрролл Линч

Перевод: Профессиональный (полное дублирование, Blu-ray CEE (рус, укр)) + оригинал
Субтитры:русские, украинские, английские

Описание
У Кола Уивера, пуританских взглядов семьянина в возрасте «чуть-чуть за сорок», не жизнь, а мечта — хорошая работа, прекрасный дом, замечательные дети и брак со школьной возлюбленной. Но когда Кол узнает, что его жена Эмили изменила ему и хочет развода, его «идеальная» жизнь быстро рушится. Хуже того, говоря современным языком, Кол, который уже пару десятилетий не ходил на свидания, являет собой настоящего «лоха».

И вот, проводя все свое свободное время в баре в дурном расположении духа, несчастный Кол становится протеже обаятельного («чуть-чуть за тридцать») игрока Джейкоба Палмера. Пытаясь помочь Колу забыть жену и начать собственную жизнь, Джейкоб открывает ему глаза на многочисленные возможности, открывающиеся перед ним: кокетливые женщины, крепкие напитки и чувство стиля, которое нельзя найти в дешевой парикмахерской или магазине распродаж.

Кол и Эмили — не единственные, кто ищут любовь, причем, возможно, совершенно не там, где нужно: тринадцатилетний Робби, сын Кола, сходит с ума по своей семнадцатилетней няне Джессике, а та скрывает свою влюбленность в его отца. И несмотря на новый облик и новые завоевания на любовном фронте, единственное, что Кол не может «переупрямить», — это собственное сердце, которое ведет его туда, с чего все когда-то начиналось.



Доп. информация

Премьеры ▼премьера (мир) 28 июля 2011
премьера (РФ) 22 сентября 2011

Рейтинг MPAA ▼
лицам до 13 лет просмотр не желателен

"MediaInfo" ▼TextGeneral
Unique ID : 178470904260039591042429283408729209668 (0x86443EF171684E26B0289AFFEE0DFB44)
Complete name : D:DownloadsВидеоCrazy, Stupid, Love.2011.BluRay-Remux(1080p).mkv
Format : Matroska
File size : 15.4 GiB
Duration : 1h 58mn
Overall bit rate : 18.7 Mbps
Movie name : Talian-
Encoded date : UTC 2011-11-30 11:22:30
Writing application : mkvmerge v5.0.1 (Es ist Sommer) built on Oct 9 2011 11:55:43
Writing library : libebml v1.2.2 + libmatroska v1.3.0
Video
ID : 1
Format : AVC
Format/Info : Advanced Video Codec
Format profile : [email protected]
Format settings, CABAC : Yes
Format settings, ReFrames : 2 frames
Codec ID : V_MPEG4/ISO/AVC
Duration : 1h 58mn
Bit rate mode : Variable
Bit rate : 14.8 Mbps
Width : 1 920 pixels
Height : 1 080 pixels
Display aspect ratio : 16:9
Frame rate : 23.976 fps
Color space : YUV
Chroma subsampling : 4:2:0
Bit depth : 8 bits
Scan type : Progressive
Bits/(Pixel*Frame) : 0.299
Stream size : 12.2 GiB (80%)
Title : Crazy, Stupid, Love.2011.BluRay-Remux(1080p)
Language : English
Audio #1
ID : 2
Format : AC-3
Format/Info : Audio Coding 3
Mode extension : CM (complete main)
Codec ID : A_AC3
Duration : 1h 58mn
Bit rate mode : Constant
Bit rate : 640 Kbps
Channel(s) : 6 channels
Channel positions : Front: L C R, Side: L R, LFE
Sampling rate : 48.0 KHz
Bit depth : 16 bits
Compression mode : Lossy
Stream size : 541 MiB (3%)
Title : DUB-Blu-ray CEE
Language : Russian
Audio #2
ID : 3
Format : AC-3
Format/Info : Audio Coding 3
Mode extension : CM (complete main)
Codec ID : A_AC3
Duration : 1h 58mn
Bit rate mode : Constant
Bit rate : 384 Kbps
Channel(s) : 6 channels
Channel positions : Front: L C R, Side: L R, LFE
Sampling rate : 48.0 KHz
Bit depth : 16 bits
Compression mode : Lossy
Stream size : 324 MiB (2%)
Title : DUB-R5
Language : Ukrainian
Audio #3
ID : 4
Format : DTS
Format/Info : Digital Theater Systems
Format profile : MA / Core
Codec ID : A_DTS
Duration : 1h 58mn
Bit rate mode : Variable
Bit rate : 2 413 Kbps / 1 510 Kbps
Channel(s) : 6 channels
Channel pos
61ec0b8e4d8c2e8455d3b8556762dadb33e63debЭта - дурацкая - любовь / Crazy, Stupid, Love (Гленн Фикарра, Джон Рекуа, драма, мелодрама, комедия, 2011) [BDRemux 1080p, Дубляж + оригинал + субтитры] Эта - дурацкая - любовь / Crazy, Stupid, Love (Гленн Фикарра, Джон Рекуа, драма, мелодрама, комедия, 2011) [BDRemux 1080p, Дубляж + оригинал + субтитры] " />

Аплоадер: Админ, дата: 1-12-2011, 18:31, торрент скачан: 359 раз

Понравилась раздача? Посмотрите эти:
  • Штурм Белого дома / White House Down (Роланд Эммерих, боевик, триллер, 2013 ...
  • Нубы / Noobz (Блейк Фриман, Комедия, 2012) [BDRemux 1080p, Профессиональный ...
  • Родительский беспредел / Parental Guidance (Энди Фикмен, Комедия, семейный, ...
  • Запретная любовь / The Edge of Love (Джон Мэйбери, Драма, мелодрама, военны ...
  • Эта - дурацкая - любовь / Crazy, Stupid, Love. (Гленн Фикарра,Джон Рекуа,др ...
  • Эта - дурацкая - любовь / Crazy, Stupid, Love. (Гленн Фикарра,Джон Рекуа,др ...
  • Эта - дурацкая - любовь / Crazy, Stupid, Love. (Гленн Фикарра,Джон Рекуа,др ...
  • Эта - дурацкая - любовь / Crazy, Stupid, Love. (Гленн Фикарра / Glenn Ficar ...
  • Эта – дурацкая – любовь / Crazy, Stupid, Love (Гленн Фикарра, Джон Рекуа, м ...
  • Прислуга / The Help (Тейт Тейлор, драма, 2011) [BDRemux 1080p, Профессионал ...
  • Двойник дьявола / The Devils Double (Ли Тамахори, драма, биография, 2011) [ ...
  • Погоня / Abduction (Джон Синглтон, боевик, триллер, драма, детектив,2011) [ ...
  • Время / In Time (Эндрю Никкол, фантастика, триллер, драма, мелодрама, крими ...
  • Пол: Секретный материальчик / Расширенная версия / Paul (Грег Моттола, фант ...
  • «Старый» Новый год / New Years Eve (Гэрри Маршалл, мелодрама, комедия, 2011 ...
  • Стыд / Shame (Стив МакКуин, драма, 2011) [BDRemux 1080p, Дублированный + Од ...
  • Притворись моей женой / Just go with it (Деннис Дуган, мелодрама, комедия, ...
  • Рапунцель: Счастлива навсегда / Tangled Ever After ( Нэйтан Грено, Байрон Х ...
  • Эта - дурацкая - любовь / Crazy, Stupid, Love. (Гленн Фикарра,Джон Рекуа,др ...
  • Эта - дурацкая - любовь / Crazy, Stupid, Love. (Гленн Фикарра,Джон Рекуа,др ...
  • Эта - дурацкая - любовь / Crazy, Stupid, Love. (Гленн Фикарра / Glenn Ficar ...
  • Эта - дурацкая - любовь / Crazy, Stupid, Love. (Гленн Фикарра / Glenn Ficar ...
  • Эта - дурацкая - любовь / Crazy, Stupid, Love. (Гленн Фикарра, Джон Рекуа, ...
  • [iPhone, iPod, iPad] Эта дурацкая любовь / Crazy, Stupid, Love (Гленн Фикар ...
  • Эта - дурацкая - любовь / Crazy, Stupid, Love. (Гленн Фикарра / Glenn Ficar ...
  • Информация
    Посетители, находящиеся в группе Гости, не могут оставлять комментарии к данной публикации.