вход на сайт

Имя пользователя :
Пароль :

Восстановление пароля Регистрация
Ларри Краун / Larry Crowne (Том Хэнкс, драма, мелодрама, комедия, 2011) [BDRip 720p, полное дублирование + оригинал + субтитры]
Рейтинг:
(голосов: 1)



[img]{THEME}/images/logopost.png[/img]



Ларри Краун / Larry Crowne

Год выпуска: 2011
Страна: США
Производство: Playtone Productions, Universal Pictures, Vendome Pictures
Жанр: драма, мелодрама, комедия
Режиссёр: Том Хэнкс
В ролях: Том Хэнкс, Джулия Робертс, Сара Махони, Роксана Ортега, Рэндолл Парк, Брэйди Рубин, Алекс Кихано, Тина Хуанг, Тарина Паунси, Сай Ричардсон
Перевод: полное дублирование + оригинал
Субтитры: русские(R5,Voronine),английские(SDH)
Описание:
До своего увольнения приветливый и любезный Ларри Краун был преуспевающим командным руководителем крупной компании, в которой он работал после службы на флоте. Под тяжестью ипотеки и будучи в неясности от того, что делать с внезапно появившимися свободными днями, Ларри направляется в местный колледж, чтобы начать все сначала.

Качество: BDRip 720p
Продолжительность: 01:38:36
Формат: MKV
Видео кодек: AVC
Аудио кодек: AC3, DTS
Формат видео: 1280x534p, (2.35:1), 23.976 fps, 5 546 Kbps, 0.338 bit/pixel
Формат аудио:
Russian: 48 kHz, AC3, 3/2 (L,C,R,l,r) + LFE ch, ~448.00 kbps avg
English: 48 kHz, DTS, 3/2 (L,C,R,l,r) + LFE ch, ~768.00 kbps avg

MediaInfo ▼
Text
General
Unique ID : 203335814722826358600567399151891918703 (0x98F90DADDB8C7354B3A9AB68AE802F6F)
Complete name : D:DownloadsВидеоLarry Crowne 2011 BluRay 720p DTS x264-CHD.mkv
Format : Matroska
File size : 4.66 GiB
Duration : 1h 38mn
Overall bit rate : 6 763 Kbps
Movie name : -Talian-
Encoded date : UTC 2011-11-04 13:45:32
Writing application : mkvmerge v3.3.0 (Language) сборка от May 14 2010 17:11:50
Writing library : libebml v0.8.0 + libmatroska v0.9.0

Video
ID : 1
Format : AVC
Format/Info : Advanced Video Codec
Format profile : [email protected]
Format settings, CABAC : Yes
Format settings, ReFrames : 10 frames
Codec ID : V_MPEG4/ISO/AVC
Duration : 1h 38mn
Bit rate : 5 546 Kbps
Width : 1 280 pixels
Height : 534 pixels
Display aspect ratio : 2.35:1
Frame rate : 23.976 fps
Color space : YUV
Chroma subsampling : 4:2:0
Bit depth : 8 bits
Scan type : Progressive
Bits/(Pixel*Frame) : 0.338
Stream size : 3.74 GiB (80%)
Title : Larry Crowne 2011 BluRay 720p DTS x264-CHD
Writing library : x264 core 116 r2074 2641b9e
Encoding settings : cabac=1 / ref=10 / deblock=1:-3:-3 / analyse=0x3:0x113 / me=umh / subme=10 / psy=1 / psy_rd=1.05:0.10 / mixed_ref=1 / me_range=32 / chroma_me=1 / trellis=2 / 8x8dct=1 / cqm=0 / deadzone=21,11 / fast_pskip=0 / chroma_qp_offset=-2 / threads=8 / sliced_threads=0 / nr=0 / decimate=1 / interlaced=0 / bluray_compat=0 / constrained_intra=0 / bframes=6 / b_pyramid=2 / b_adapt=2 / b_bias=0 / direct=3 / weightb=1 / open_gop=0 / weightp=2 / keyint=250 / keyint_min=23 / scenecut=40 / intra_refresh=0 / rc_lookahead=50 / rc=2pass / mbtree=1 / bitrate=5546 / ratetol=1.0 / qcomp=0.70 / qpmin=0 / qpmax=69 / qpstep=4 / cplxblur=20.0 / qblur=0.5 / vbv_maxrate=40000 / vbv_bufsize=30000 / nal_hrd=none / ip_ratio=1.40 / aq=2:0.80
Language : English

Audio #1
ID : 2
Format : AC-3
Format/Info : Audio Coding 3
Mode extension : CM (complete main)
Codec ID : A_AC3
Duration : 1h 38mn
Bit rate mode : Constant
Bit rate : 448 Kbps
Channel(s) : 6 channels
Channel positions : Front: L C R, Side: L R, LFE
Sampling rate : 48.0 KHz
Bit depth : 16 bits
Compression mode : Lossy
Stream size : 316 MiB (7%)
Title : DUB-R5
Language : Russian

Audio #2
ID : 3
Format : DTS
Format/Info : Digital Theater Systems
Codec ID : A_DTS
Duration : 1h 38mn
Bit rate mode : Constant
Bit rate : 755 Kbps
Channel(s) : 6 channels
Channel positions : Front: L C R, Side: L R, LFE
Sampling rate : 48.0 KHz
Bit depth : 24 bits
Compression mode : Lossy
Delay relative to video : 11ms
e5037082e6ffdda83dfefa0cce0daba9bca6b480Ларри Краун / Larry Crowne (Том Хэнкс, драма, мелодрама, комедия, 2011) [BDRip 720p, полное дублирование + оригинал + субтитры] Ларри Краун / Larry Crowne (Том Хэнкс, драма, мелодрама, комедия, 2011) [BDRip 720p, полное дублирование + оригинал + субтитры] " />

Аплоадер: Админ, дата: 28-11-2011, 18:01, торрент скачан: 359 раз

Понравилась раздача? Посмотрите эти:
  • Экзамен для двоих / Admission (Пол Вайц, драма, мелодрама, комедия, 2013) [ ...
  • Жизнь Пи / Life Of Pi (Энг Ли, Драма, приключения, 2012) [BDRip 720p, Профе ...
  • Зубная фея 2 / Tooth Fairy 2 (Алекс Замм, комедия, семейный, 2012) [BDRip 7 ...
  • Ларри Краун / Larry Crowne (Том Хэнкс, драма, мелодрама, комедия, 2011) [BD ...
  • Ларри Краун / Larry Crowne (Том Хэнкс,драма, мелодрама, комедия,2011) [HDRi ...
  • Больше чем секс / No Strings Attached (Айвен Райтман, мелодрама, комедия, 2 ...
  • Ларри Краун / Larry Crowne (Том Хэнкс, Драма, мелодрама, комедия, 2011) [BD ...
  • Исходный код / Source Code (Дункан Джонс, фантастика, боевик, триллер, 2011 ...
  • Бобер / The Beaver (Джоди Фостер, драма, 2011) [BDRip 720p, Дубляж + Оригин ...
  • Мой парень из зоопарка / Zookeeper (Фрэнк Корачи, мелодрама, комедия, семей ...
  • Секс по дружбе / Friends with Benefits (Уилл Глак, драма, мелодрама, комеди ...
  • Дети шпионов 4D / Spy Kids: All the Time in the World in 4D (Роберт Родриге ...
  • Мальчишник 2: Из Вегаса в Бангкок / The Hangover Part II (Тодд Филлипс, ком ...
  • Двойник дьявола / The Devils Double (Ли Тамахори, драма, биография, 2011) [ ...
  • Человек, который изменил всё / Moneyball (Беннетт Миллер, драма, биография, ...
  • Дом грёз / Dream House (Джим Шеридан, триллер, драма, детектив, 2011) [BDRi ...
  • Домашняя работа / The Art of Getting By (Гэвин Вьесен, драма, мелодрама, 20 ...
  • Значит, война / This Means War (МакДжи, боевик, мелодрама, комедия, 2012) [ ...
  • «Старый» Новый год / New Years Eve (Гэрри Маршалл, мелодрама, комедия, 2011 ...
  • Ворон / The Raven (Джеймс МакТиг, Триллер, детектив, 2012) [BDRip 720p, Дуб ...
  • Рок на века / Rock of Ages (Адам Шенкман, Мюзикл, драма, мелодрама, комедия ...
  • Mylene Farmer / Du Temps [2011, Pop, HDTVRip]
  • Mylene Farmer / Bleu Noir [2011, Pop, HDTVRip]
  • Ларри Краун / Larry Crowne (Том Хэнкс, драма, мелодрама, комедия, 2011) [HD ...
  • Ларри Краун / Larry Crowne (Том Хэнкс / Tom Hanks, драма, мелодрама, комеди ...
  • Информация
    Посетители, находящиеся в группе Гости, не могут оставлять комментарии к данной публикации.