вход на сайт

Имя пользователя :
Пароль :

Восстановление пароля Регистрация
Мальчишник 2: Из Вегаса в Бангкок / The Hangover Part II (Тодд Филлипс, комедия, 2011) [BDRip 720p, Дубляж + Одноголосый закадровый + оригинал]
Рейтинг:
(голосов: 1)



[img]{THEME}/images/logopost.png[/img]



Мальчишник 2: Из Вегаса в Бангкок / The Hangover Part II

«Теперь их имеет Бангкок»

Год выпуска: 2011
Страна: США
Производство: Green Hat Films
Жанр: комедия

Режиссёр: Тодд Филлипс
В ролях: Брэдли Купер, Эд Хелмс, Зак Галифианакис, Майк Тайсон, Джастин Барта, Кен Жонг, Пол Джаматти, Джефри Тэмбор, Мэйсон С. Ли, Джеми Чунг


Перевод: Профессиональный (полное дублирование)Blu-ray CEE + Профессиональный (дублированный, украинский) + Одноголосый закадровый (Алексей «Doctor_Joker» Матвеев) по переводу Дмитрия «Goblina» Пучкова + оригинал
Субтитры:русские (forced,full Blu-ray),русские(Дмитрий "Goblin" Пучков,voronine),английские

Описание
В продолжении культовой комедии «Мальчишник в Вегасе» четверо друзей Фил, Стю, Алан и Даг отправляются в экзотический Тайланд на свадьбу Стю. После безумного мальчишника в Лас-Вегасе, они решают не испытывать судьбу во второй раз, а потому в Бангкоке планируют очень спокойное и безопасное празднество. Но как обычно, все идет совсем не по плану… Что происходит в Вегасе, остается в Вегасе. Но то, что происходит в Бангкоке — это просто настоящее безумие!



Доп. информация

"MediaInfo" ▼TextGeneral
Unique ID : 192597405013296082035142387678011695485 (0x90E4E934312DD0FCB19CF48B1A33A17D)
Complete name : D:DownloadsВидеоРипыThe.Hangover.Part.II.2011.720p.BluRay.x264-EbP.mkv
Format : Matroska
File size : 8.22 GiB
Duration : 1h 41mn
Overall bit rate : 11.6 Mbps
Movie name : -Talian-
Encoded date : UTC 2011-11-26 09:16:19
Writing application : mkvmerge v5.0.1 (Es ist Sommer) built on Oct 9 2011 11:55:43
Writing library : libebml v1.2.2 + libmatroska v1.3.0
Video
ID : 1
Format : AVC
Format/Info : Advanced Video Codec
Format profile : [email protected]
Format settings, CABAC : Yes
Format settings, ReFrames : 12 frames
Codec ID : V_MPEG4/ISO/AVC
Duration : 1h 41mn
Bit rate : 7 032 Kbps
Width : 1 280 pixels
Height : 534 pixels
Display aspect ratio : 2.35:1
Frame rate : 23.976 fps
Color space : YUV
Chroma subsampling : 4:2:0
Bit depth : 8 bits
Scan type : Progressive
Bits/(Pixel*Frame) : 0.429
Stream size : 5.00 GiB (61%)
Title : The Hangover Part II 2011 720p BluRay DD5.1 x264-EbP
Writing library : x264 core 119 r2106 07efeb4
Encoding settings : cabac=1 / ref=12 / deblock=1:-3:-3 / analyse=0x3:0x113 / me=tesa / subme=11 / psy=1 / psy_rd=1.15:0.00 / mixed_ref=1 / me_range=16 / chroma_me=1 / trellis=2 / 8x8dct=1 / cqm=0 / deadzone=6,6 / fast_pskip=0 / chroma_qp_offset=-2 / threads=6 / sliced_threads=0 / nr=0 / decimate=0 / interlaced=0 / bluray_compat=0 / constrained_intra=0 / bframes=7 / b_pyramid=2 / b_adapt=2 / b_bias=0 / direct=3 / weightb=1 / open_gop=0 / weightp=2 / keyint=250 / keyint_min=23 / scenecut=40 / intra_refresh=0 / rc=crf / mbtree=0 / crf=16.8 / qcomp=0.60 / qpmin=0 / qpmax=69 / qpstep=4 / ip_ratio=1.10 / pb_ratio=1.10 / aq=1:0.65 / zones=36295,51241,b=1.2/55674,60379,b=1.2/79087,85242,b=1.2/93802,94816,b=1.2
Language : English
Audio #1
ID : 2
Format : AC-3
Format/Info : Audio Coding 3
Mode extension : CM (complete main)
Codec ID : A_AC3
Duration : 1h 41mn
Bit rate mode : Constant
Bit rate : 640 Kbps
Channel(s) : 6 channels
Channel positions : Front: L C R, Side: L R, LFE
Sampling rate : 48.0 KHz
Bit depth : 16 bits
Compression mode : Lossy
Stream size : 466 MiB (6%)
Title : DUB-Blu-ray
Language : Russian
Audio #2
ID : 3
Format : AC-3
Format/Info : Audio Coding 3
Mode extension : CM (complete main)
Codec ID : A_AC3
Duration : 1h 41mn
Bit rate mode : Constant
Bit rate : 640 Kbps
Channel(s) : 6 channels
Channel positions : Front: L C R, Side: L R, LFE
Sampling rate : 48.0 KHz
Bit depth : 16 bits
Compression mode : Lossy
Stream size : 466 MiB (6%)
Title : DUB-Blu-ray
Language : Ukrainian
Audio #3
ID : 4
Format : DTS
Format/Info : Digital Theater Systems
Codec ID : A_DTS
Duration : 1h 41mn
Bit rate mode : Constant
Bit rate : 1 510 Kbps
Channel(s) : 6 channels
Channel positions : Front: L C R, Side: L R, LFE
Sampling rate : 48.0 KHz
Bit depth : 24 bits
Compressio
3c7848a71ef055547ed03efcce3ae8785db41852Мальчишник 2: Из Вегаса в Бангкок / The Hangover Part II (Тодд Филлипс, комедия, 2011) [BDRip 720p, Дубляж + Одноголосый закадровый + оригинал] Мальчишник 2: Из Вегаса в Бангкок / The Hangover Part II (Тодд Филлипс, комедия, 2011) [BDRip 720p, Дубляж + Одноголосый закадровый + оригинал] " />

Аплоадер: Админ, дата: 27-11-2011, 12:24, торрент скачан: 359 раз

Понравилась раздача? Посмотрите эти:
  • Мальчишник: Часть III / The Hangover Part III (Тодд Филлипс, комедия, 2013) ...
  • Мальчишник: Часть III / The Hangover Part III (Тодд Филлипс, комедия, 2013) ...
  • Мальчишник: Часть III / The Hangover Part III (Тодд Филлипс, Комедия, 2013) ...
  • Мальчишник: Часть III / The Hangover Part III (Тодд Филлипс, комедия, 2013) ...
  • Мальчишник: Часть III / The Hangover Part III (Тодд Филлипс, Комедия, 2013) ...
  • Мальчишник: Часть III / The Hangover Part III (Тодд Филлипс, комедия, 2013) ...
  • Мальчишник: Часть III / The Hangover Part III (Тодд Филлипс, Комедия, 2013) ...
  • Мальчишник 2: Из Вегаса в Бангкок / The Hangover Part II (Тодд Филлипс, ком ...
  • Мальчишник 2: Из Вегаса в Бангкок / The Hangover Part II (Тодд Филлипс, Ком ...
  • Мальчишник 2: Из Вегаса в Бангкок / The Hangover Part II (Тодд Филлипс, ком ...
  • Мальчишник 2: Из Вегаса в Бангкок / Похмелье. Часть 2 / The Hangover Part I ...
  • Мальчишник 2: Из Вегаса в Бангкок / The Hangover Part II (Тодд Филлипс, ком ...
  • Мальчишник 2: Из Вегаса в Бангкок / The Hangover Part II (Тодд Филлипс, ком ...
  • Мальчишник 2: Из Вегаса в Бангкок / The Hangover Part II [BDRip-AVC, Профе ...
  • Мальчишник 2: Из Вегаса в Бангкок / The Hangover Part II (Тодд Филлипс, ком ...
  • Мальчишник 2: Из Вегаса в Бангкок / The Hangover Part II (Тодд Филлипс, ком ...
  • Мальчишник 2: Из Вегаса в Бангкок / The Hangover Part II (Тодд Филлипс, ком ...
  • (2011, сборник) VA / Мальчишник 2: Из Вегаса в Бангкок / The Hangover Part ...
  • Мальчишник 2: Из Вегаса в Бангкок / The Hangover Part II (Тодд Филлипс, ком ...
  • Мальчишник 2: Из Вегаса в Бангкок / The Hangover Part II (Тодд Филлипс, ком ...
  • Мальчишник 2: Из Вегаса в Бангкок / The Hangover Part II (Тодд Филлипс, ком ...
  • Мальчишник 2: Из Вегаса в Бангкок / The Hangover Part II (Тодд Филлипс, Ком ...
  • Мальчишник 2: Из Вегаса в Бангкок / The Hangover Part II (Тодд Филлипс, ком ...
  • The Hangover | Мальчишник в вегасе (Тодд Филлипс, комедия, 2009) [HDRip, Ду ...
  • Мальчишник 2: Из Вегаса в Бангкок / The Hangover Part II (Тодд Филлипс, Ком ...
  • Информация
    Посетители, находящиеся в группе Гости, не могут оставлять комментарии к данной публикации.