вход на сайт

Имя пользователя :
Пароль :

Восстановление пароля Регистрация
Восстание планеты обезьян / Rise of the Planet of the Apes (Руперт Уайатт, фантастика, боевик, триллер, драма, 2011) [BDRip 720p, Профессиональный многоголосый + оригинал + субтитры]
Рейтинг:
(голосов: 1)



[img]{THEME}/images/logopost.png[/img]



Восстание планеты обезьян / Rise of the Planet of the Apes
«Evolution Becomes Revolution»

Год выпуска: 2011
Страна: США
Производство: Chernin Entertainment, Twentieth Century Fox Film Corporation
Жанр: фантастика, боевик, триллер, драма
Режиссёр: Руперт Уайатт
В ролях: Джеймс Франко, Джон Литгоу, Фрида Пинто, Тайлер Лэбин, Брайан Кокс, Том Фелтон, Дэвид Ойелоуо, Джэми Харрис, Дэвид Хьюлетт, Ти Олссон
Перевод: Профессиональный многоголосый (студия «Омикрон») + оригинал
Субтитры: Английские, греческие, шведские, румынские, польские, финские, турецкие
Описание:
Молодой ученый испытывает на обезьянах новое лекарство от болезни Альцгеймера. У препарата обнаруживается удивительный побочный эффект, он повышает в несколько раз интеллект приматов.
IMDB: 7.80 (72 189)
КиноПоиск: 7.571 (16 246)
Качество: BDRip 720p
Продолжительность: 01:44:56
Формат: MKV
Видео кодек: AVC
Аудио кодек: DTS
Формат видео: 1280x544p, (2.35:1), 23.976 fps, 6 122 Kbps, 0.367 bit/pixel
Формат аудио:
Русский (DTS, 6 ch, 1536 Кбит/с)
английский (DTS, 6 ch, 1536 Кбит/с)

MediaInfo ▼
TextGeneral
Unique ID : 187225212773612902032924890502366980905 (0x8CDA43AD42B80FD58B7F571AB9F76B29)
Complete name : Vosstanie.planeti.obezjan.2011.H.264.BDRip.720p.mkv
Format : Matroska
File size : 6.70 GiB
Duration : 1h 44mn
Overall bit rate : 9 140 Kbps
Movie name : Rise of the Planet of the Apes (2011)
Encoded date : UTC 2011-11-14 01:37:06
Writing application : mkvmerge v3.4.0 (Rapunzel) built on May 15 2010 09:38:20
Writing library : libebml v0.8.0 + libmatroska v0.9.0

Video
ID : 1
Format : AVC
Format/Info : Advanced Video Codec
Format profile : [email protected]
Format settings, CABAC : Yes
Format settings, ReFrames : 10 frames
Codec ID : V_MPEG4/ISO/AVC
Duration : 1h 44mn
Bit rate : 6 122 Kbps
Width : 1 280 pixels
Height : 544 pixels
Display aspect ratio : 2.35:1
Frame rate : 23.976 fps
Color space : YUV
Chroma subsampling : 4:2:0
Bit depth : 8 bits
Scan type : Progressive
Bits/(Pixel*Frame) : 0.367
Stream size : 4.35 GiB (65%)
Writing library : x264 core 116 r2074 2641b9e
Encoding settings : cabac=1 / ref=11 / deblock=1:-3:-3 / analyse=0x3:0x113 / me=umh / subme=10 / psy=1 / psy_rd=1.07:0.07 / mixed_ref=1 / me_range=32 / chroma_me=1 / trellis=2 / 8x8dct=1 / cqm=0 / deadzone=21,11 / fast_pskip=1 / chroma_qp_offset=-3 / threads=6 / sliced_threads=0 / nr=0 / decimate=1 / interlaced=0 / bluray_compat=0 / constrained_intra=0 / bframes=7 / b_pyramid=1 / b_adapt=2 / b_bias=0 / direct=1 / weightb=1 / open_gop=0 / weightp=2 / keyint=240 / keyint_min=24 / scenecut=40 / intra_refresh=0 / rc_lookahead=40 / rc=2pass / mbtree=1 / bitrate=6122 / ratetol=1.0 / qcomp=0.60 / qpmin=0 / qpmax=69 / qpstep=4 / cplxblur=20.0 / qblur=0.5 / vbv_maxrate=62500 / vbv_bufsize=25000 / nal_hrd=none / ip_ratio=1.30 / aq=1:0.70
Language : English

Audio #1
ID : 2
Format : DTS
Format/Info : Digital Theater Systems
Codec ID : A_DTS
Duration : 1h 44mn
Bit rate mode : Constant
Bit rate : 1 510 Kbps
Channel(s) : 6 channels
Channel positions : Front: L C R, Side: L R, LFE
Sampling rate : 48.0 KHz
Bit depth : 24 bits
Compression mode : Lossy
Stream size : 1.11 GiB (17%)
Title : DTS 5.1 1536 kbps Многоголосый закадровый, студия «Омикрон»
Language : Russian

Audio #2
ID : 3
Format : DTS
Format/Info : Digital Theater Systems
Codec ID : A_DTS
Duration : 1h 44mn
Bit rate mode : Constant
Bit rate : 1 510 Kbps
Channel(s) : 6 channels
Channel positions : Front: L C R, Side: L R, LFE
Sampling rate : 48.0 KHz
Bit depth : 24 bits
Compression mode : Lossy
Delay relative to video : 11ms
Stream size :
6e31f8ecb732b1de3821bc2eaf31fd81f3b2637fВосстание планеты обезьян / Rise of the Planet of the Apes (Руперт Уайатт, фантастика, боевик, триллер, драма, 2011) [BDRip 720p, Профессиональный многоголосый + оригинал + субтитры] Восстание планеты обезьян / Rise of the Planet of the Apes (Руперт Уайатт, фантастика, боевик, триллер, драма, 2011) [BDRip 720p, Профессиональный многоголосый + оригинал + субтитры] " />

Аплоадер: Админ, дата: 14-11-2011, 21:06, торрент скачан: 359 раз

Понравилась раздача? Посмотрите эти:
  • Восстание планеты обезьян/ Planet of the Apes(Руперт Уайатт,Фантастика,Прик ...
  • Восстание планеты обезьян/ Planet of the Apes(Руперт Уайатт,Фантастика,Прик ...
  • Восстание планеты обезьян / Rise of the Planet of the Apes (Руперт Уайатт, ...
  • Восстание планеты обезьян / Rise of the Planet of the Apes (Руперт Уайатт, ...
  • Восстание планеты обезьян / Rise of the Planet of the Apes (Руперт Уайатт, ...
  • Восстание планеты обезьян / Rise of the Planet of the Apes (Руперт Уайатт, ...
  • Восстание планеты обезьян / Rise of the Planet of the Apes (Руперт Уайатт, ...
  • Восстание планеты обезьян / Rise of the Planet of the Apes (Руперт Уайатт, ...
  • Восстание планеты обезьян / Rise of the Planet of the Apes (Руперт Уайатт, ...
  • Судный день / The Day (Дуглас Арниокоски, Фантастика, триллер, драма, 2011) ...
  • Восстание планеты обезьян/ Planet of the Apes (Руперт Уайатт, Фантастика, П ...
  • Восстание планеты обезьян/ Planet of the Apes(Руперт Уайатт,Фантастика,Прик ...
  • Восстание планеты обезьян/ Planet of the Apes(Руперт Уайатт,Фантастика,Прик ...
  • Восстание планеты обезьян / Planet of the Apes (Руперт Уайатт, Фантастика, ...
  • Восстание планеты обезьян / Planet of the Apes(Руперт Уайатт,фантастика, бо ...
  • Восстание планеты обезьян / Planet of the Apes(Руперт Уайатт,фантастика, бо ...
  • Восстание планеты обезьян / Planet of the Apes(Руперт Уайатт,фантастика, бо ...
  • Восстание планеты обезьян / Rise of the Planet of the Apes (Руперт Уайатт, ...
  • Восстание планеты обезьян / Rise of the Planet of the Apes (Руперт Уайатт ...
  • [iPhone, iPod, iPad]Восстание планеты обезьян / Rise of the Planet of the A ...
  • Информация
    Посетители, находящиеся в группе Гости, не могут оставлять комментарии к данной публикации.