вход на сайт

Имя пользователя :
Пароль :

Восстановление пароля Регистрация
Гарри Поттер и Дары Смерти. Часть 2 / Harry Potter and the Deathly Hallows. Part 2 (Дэвид Йэтс, фэнтези, драма, детектив, приключения, 2011) [BDRip 1080p, полное дублирование (рус, укр) + оригинал + SUB]
Рейтинг:
(голосов: 1)



[img]{THEME}/images/logopost.png[/img]



Гарри Поттер и Дары Смерти. Часть 2 / Harry Potter and the Deathly Hallows. Part 2
«Все закончится»

Год выпуска: 2011
Страна: США, Великобритания
Производство: Heyday Films, Moving Picture Company, Warner Bros., Warner Bros. Pictures
Жанр: фэнтези, драма, детектив, приключения
Режиссёр: Дэвид Йэтс
В ролях: Дэниэл Рэдклифф, Руперт Гринт, Эмма Уотсон, Рэйф Файнс, Алан Рикман, Хелена Бонем Картер, Том Фелтон, Гари Олдман, Майкл Гэмбон, Мэгги Смит
Перевод: полное дублирование (рус, укр) + оригинал
Субтитры: Русские, английские, латышские, литовские, эстонские
Описание:
В грандиозной последней главе битва между добрыми и злыми силами мира волшебников перерастает во всеобщую войну. Ставки ещё никогда не были так высоки, а поиск убежища — столь сложен. И быть может именно Гарри Поттеру придется пожертвовать всем в финальном сражении с Волан-де-Мортом. Способен ли наш герой спасти мир? И всё закончится здесь.

Качество: BDRip 1080p
Продолжительность: 02:10:26
Формат: MKV
Видео кодек: AVC
Аудио кодек: AC3, DTS
Формат видео: 1920x800p (2.400), 23.976 fps, 10.5 Mbps, 0.284 bit/pixel
Формат аудио:
Русский (AC3, 6 ch, 640 Кбит/с)
украинский (AC3, 6 ch, 640 Кбит/с)
английский (DTS, 6 ch, 1536 Кбит/с)

MediaInfo ▼
Text
General
Complete name : Harry.Potter.and.the.Deathly.Hallows.Part.2.2011.D.BDRip.1080p.mkv
Format : Matroska
File size : 11.9 GiB
Duration : 2h 10mn
Overall bit rate : 13.0 Mbps
Movie name : BlackSnow
Encoded date : UTC 2011-11-10 16:34:19
Writing application : mkvmerge v3.4.0 (Rapunzel) сборка от May 15 2010 09:38:20
Writing library : libebml v0.8.0 + libmatroska v0.9.0

Video
ID : 1
Format : AVC
Format/Info : Advanced Video Codec
Format profile : [email protected]
Format settings, CABAC : Yes
Format settings, ReFrames : 5 frames
Codec ID : V_MPEG4/ISO/AVC
Duration : 2h 10mn
Bit rate : 10.5 Mbps
Width : 1 920 pixels
Height : 800 pixels
Display aspect ratio : 2.40:1
Frame rate : 23.976 fps
Color space : YUV
Chroma subsampling : 4:2:0
Bit depth : 8 bits
Scan type : Progressive
Bits/(Pixel*Frame) : 0.284
Stream size : 9.08 GiB (77%)
Title : Harry.Potter.and.the.Deathly.Hallows.Part.2.2011.1080p.BluRay.DTS.x264-HiDt
Writing library : x264 core 119 r2106 07efeb4
Encoding settings : cabac=1 / ref=5 / deblock=1:-4:-4 / analyse=0x3:0x133 / me=umh / subme=11 / psy=1 / psy_rd=0.90:0.10 / mixed_ref=1 / me_range=64 / chroma_me=1 / trellis=2 / 8x8dct=1 / cqm=0 / deadzone=21,11 / fast_pskip=0 / chroma_qp_offset=-3 / threads=12 / sliced_threads=0 / nr=0 / decimate=0 / interlaced=0 / bluray_compat=0 / constrained_intra=0 / bframes=11 / b_pyramid=2 / b_adapt=2 / b_bias=0 / direct=3 / weightb=1 / open_gop=0 / weightp=2 / keyint=240 / keyint_min=2 / scenecut=40 / intra_refresh=0 / rc=2pass / mbtree=0 / bitrate=10451 / ratetol=1.0 / qcomp=0.80 / qpmin=0 / qpmax=69 / qpstep=4 / cplxblur=20.0 / qblur=0.5 / ip_ratio=1.38 / pb_ratio=1.25 / aq=2:1.00
Language : English

Audio #1
ID : 2
Format : AC-3
Format/Info : Audio Coding 3
Mode extension : CM (complete main)
Codec ID : A_AC3
Duration : 2h 10mn
Bit rate mode : Constant
Bit rate : 640 Kbps
Channel(s) : 6 channels
Channel positions : Front: L C R, Side: L R, LFE
Sampling rate : 48.0 KHz
Bit depth : 16 bits
Stream size : 597 MiB (5%)
Title : DUB CEE
Language : Russian

Audio #2
ID : 3
Format : AC-3
Format/Info : Audio Coding 3
Mode extension : CM (complete main)
Codec ID : A_AC3
Duration : 2h 10mn
Bit rate mode : Constant
Bit rate : 640 Kbps
Channel(s) : 6 channels
Channel positions : Front: L C R, Side: L R, LFE
Sampling rate : 48.0 KHz
Bit depth
6ff9dda7254b77b4dc335838fbf80ce8fd3bc1a7Гарри Поттер и Дары Смерти. Часть 2 / Harry Potter and the Deathly Hallows. Part 2 (Дэвид Йэтс, фэнтези, драма, детектив, приключения, 2011) [BDRip 1080p, полное дублирование (рус, укр) + оригинал + SUB] Гарри Поттер и Дары Смерти. Часть 2 / Harry Potter and the Deathly Hallows. Part 2 (Дэвид Йэтс, фэнтези, драма, детектив, приключения, 2011) [BDRip 1080p, полное дублирование (рус, укр) + оригинал + SUB] " />

Аплоадер: Админ, дата: 11-11-2011, 07:39, торрент скачан: 359 раз

Понравилась раздача? Посмотрите эти:
  • Гарри Поттер и Дары смерти: Часть 1 / Harry Potter and the Deathly Hallows: ...
  • Гарри Поттер и Дары смерти: Часть 2 / Harry Potter and the Deathly Hallows: ...
  • Гарри Поттер и Дары смерти: Часть II / Harry Potter and the Deathly Hallows ...
  • Гарри Поттер и Дары смерти: Часть 2 / Harry Potter and the Deathly Hallows: ...
  • Гарри Поттер и Дары смерти: Часть II / Harry Potter and the Deathly Hallows ...
  • [3D] Гарри Поттер и Дары Смерти: часть 2 / Harry Potter and the Deathly Hal ...
  • [3D] Гарри Поттер и дары смерти: Часть 2 3D / Harry Potter and the Deathly ...
  • Гарри Поттер и Дары смерти: Часть 1 / Harry Potter and the Deathly Hallows ...
  • Гарри Поттер и Дары смерти: Часть 1 / Harry Potter and the Deathly Hallows: ...
  • (2010) Alexandre Desplat / HARRY POTTER AND THE DEATHLY HALLOWS PART I / ГА ...
  • Гарри Поттер и Дары смерти: Часть 1 / Harry Potter and the Deathly Hallows: ...
  • Гарри Поттер и Дары смерти: Часть 1 / Harry Potter and the Deathly Hallows: ...
  • Гарри Поттер и Дары смерти: Часть 1 / Harry Potter and the Deathly Hallows: ...
  • Гарри Поттер и Дары смерти: Часть 1 / Harry Potter and the Deathly Hallows: ...
  • Гарри Поттер и Дары смерти: Часть 1 / Harry Potter and the Deathly Hallows: ...
  • Гарри Поттер и Дары смерти: Часть 1 / Harry Potter and the Deathly Hallows: ...
  • Гарри Поттер и Дары смерти: Часть 1 / Harry Potter and the Deathly Hallows: ...
  • Гарри Поттер и Дары Смерти. Часть 2 / Harry Potter and the Deathly Hallows. ...
  • Гарри Поттер и Дары смерти: Часть 2 / Harry Potter and the Deathly Hallows: ...
  • Гарри Поттер и Дары смерти: Часть 2 / Harry Potter and the Deathly Hallows: ...
  • Гарри Поттер и Дары смерти: Часть 2 / Harry Potter and the Deathly Hallows: ...
  • Гарри Поттер и Дары смерти: Часть II / Harry Potter and the Deathly Hallows ...
  • Гарри Поттер и Дары смерти: Часть 2 / Harry Potter and the Deathly Hallows: ...
  • [ENG] Гарри Поттер и Дары смерти: Часть II / Harry Potter and the Deathly H ...
  • [3D] Гарри Поттер и дары смерти: Часть 2 3D / Harry Potter and the Deathly ...
  • Информация
    Посетители, находящиеся в группе Гости, не могут оставлять комментарии к данной публикации.