вход на сайт

Имя пользователя :
Пароль :

Восстановление пароля Регистрация
Конан-варвар / Conan the Barbarian (Маркус Ниспел, фэнтези, боевик, приключения, 2011) [BDRip 720p, Дубляж + оригинал]
Рейтинг:
(голосов: 1)



[img]{THEME}/images/logopost.png[/img]



Конан-варвар / Conan the Barbarian

«Легенда возрождается»


Год выпуска: 2011
Страна: США
Производство: Millennium Films
Жанр: фэнтези, боевик, приключения

Режиссёр: Маркус Ниспел
В ролях: Джейсон Момоа, Рон Перлман, Стивен Лэнг, Рейчел Николс, Роуз МакГоун, Боб Сапп, Лео Ховард, Стив О’Доннелл, Нонсо Анози, Раад Рави

Перевод: Дублированный [лицензия]
Субтитры: нет

Описание: Природа наделила его силой. Гибель отца сделала его свирепым. Великий киммерийский воин Конан отправляется в дальнее странствие, чтобы совершить отмщение за кровь своего рода. Но поиски, которые начинаются как личная вендетта, вскоре оборачиваются эпической схваткой со сверхъестественными силами, поработившими народы великой Хайбории. Киммерийский воин — последняя надежда на спасение…

IMDB: рейтинг 5.30 (9 580)
КиноПоиск: рейтинг5.718 (5 347)

Качество: BDRip 720p
Продолжительность: 01:52:42

Формат: MKV
Видео кодек: x264
Аудио кодек: AC3, DTS
Видео: 1280x534 (2.40:1) at 23.976 fps, [email protected], 2pass, ~4841 kbps avg, 0.295 bit/pix
Аудио #1: 48 kHz, AC3, 3/2 (L,C,R,l,r) + LFE ch, ~448.00 kbps avg |Дубляж|
Аудио #2: 48 kHz, DTS, 3/2 (L,C,R,l,r) + LFE ch, ~1536.00 kbps avg

"MediaInfo" ▼General
Unique ID : 250801941683761191496300560865553554066 (0xBCAEB26BF7264EB8BCB1781304D41A92)
Complete name : D:Conan.The.Barbarian.2011.BDRip.720p.mkv.mkv
Format : Matroska
Format version : Version 2
File size : 5.36 GiB
Duration : 1h 52mn
Overall bit rate : 6 807 Kbps
Movie name : Conan The Barbarian (2011) - Release for HDCLUB
Encoded date : UTC 2011-11-08 18:57:21
Writing application : mkvmerge v3.4.0 (Rapunzel) built on May 15 2010 09:38:20
Writing library : libebml v0.8.0 + libmatroska v0.9.0
Video
ID : 1
Format : AVC
Format/Info : Advanced Video Codec
Format profile : [email protected]
Format settings, CABAC : Yes
Format settings, ReFrames : 12 frames
Codec ID : V_MPEG4/ISO/AVC
Duration : 1h 52mn
Bit rate : 4 841 Kbps
Width : 1 280 pixels
Height : 534 pixels
Display aspect ratio : 2.40:1
Frame rate : 23.976 fps
Color space : YUV
Chroma subsampling : 4:2:0
Bit depth : 8 bits
Scan type : Progressive
Bits/(Pixel*Frame) : 0.295
Stream size : 3.71 GiB (69%)
Title : Release for HDCLUB
Writing library : x264 core 102 r1666 d058f37
Encoding settings : cabac=1 / ref=12 / deblock=1:-3:-3 / analyse=0x3:0x113 / me=umh / subme=10 / psy=1 / psy_rd=1.05:0.10 / mixed_ref=1 / me_range=32 / chroma_me=1 / trellis=2 / 8x8dct=1 / cqm=2 / deadzone=21,11 / fast_pskip=0 / chroma_qp_offset=-2 / threads=6 / sliced_threads=0 / nr=0 / decimate=1 / interlaced=0 / constrained_intra=0 / bframes=6 / b_pyramid=2 / b_adapt=2 / b_bias=0 / direct=3 / weightb=1 / open_gop=0 / weightp=2 / keyint=250 / keyint_min=25 / scenecut=40 / intra_refresh=0 / rc_lookahead=40 / rc=2pass / mbtree=1 / bitrate=4841 / ratetol=1.0 / qcomp=0.60 / qpmin=10 / qpmax=51 / qpstep=4 / cplxblur=20.0 / qblur=0.5 / vbv_maxrate=50000 / vbv_bufsize=50000 / ip_ratio=1.40 / aq=1:0.80 / nal_hrd=none
Language : English
Audio #1
ID : 2
Format : AC-3
Format/Info : Audio Coding 3
Mode extension : CM (complete main)
Codec ID : A_AC3
Duration : 1h 52mn
Bit rate mode : Constant
Bit rate : 448 Kbps
Channel(s) : 6 channels
Channel positions : Front: L C R, Side: L R, LFE
Sampling rate : 48.0 KHz
Bit depth : 16 bits
Compression mode : Lossy
Stream size : 361 MiB (7%)
Title : AC3 5.1 @ 384 kbps - Дублированный
Language : Russian
Audio #2
ID : 3
Format : DTS
Format/Info : Digital Theater Systems
Codec ID : A_DTS
Duration : 1h 52mn
Bit rate mode : Constant
Bit rate : 1 510 Kbps
Channel(s) : 6 channels
Channel positions : Front: L C R, Side: L R, LFE
Sampling rate : 48.0 KHz
Bit depth : 24 bits
Compression mode : Lossy
Stream size : 1.19 GiB (22%)
Title : DTS 5.1 @ 1536 kbps
Language : English
Text #1
ID : 4
Format : UTF-8
Codec ID : S_TEXT/UTF8
Codec ID/Info : UTF-8 Plain Text
Title : Voronine-R5
Language : Russian
Text #2
ID : 5
Format : UTF-8
Codec ID : S_TEXT/UTF8
Codec
bf8cb8c50661c9d16e4e0cac8e2ede43e03f498cКонан-варвар / Conan the Barbarian (Маркус Ниспел, фэнтези, боевик, приключения, 2011) [BDRip 720p, Дубляж + оригинал] Конан-варвар / Conan the Barbarian (Маркус Ниспел, фэнтези, боевик, приключения, 2011) [BDRip 720p, Дубляж + оригинал] " />

Аплоадер: Админ, дата: 9-11-2011, 12:56, торрент скачан: 359 раз

Понравилась раздача? Посмотрите эти:
  • [3D] Конан-варвар / Conan the Barbarian (Маркус Ниспел, Фэнтези, боевик, п ...
  • Паладин / Dawn Of The Dragonslayer (Энн К. Блэк, фэнтези, боевик, приключе ...
  • [EN] Конан-варвар / Conan the Barbarian (Джон Милиус, фэнтези, 1982) [DVDri ...
  • Конан-варвар / Conan the Barbarian (Маркус Ниспел, Фэнтези, 2011) [HDRip - ...
  • Конан-варвар / Conan the Barbarian (Маркус Ниспел, фэнтези, 2011) [BDRip-AV ...
  • Конан-варвар / Conan the Barbarian (Маркус Ниспел,фэнтези, боевик, приключе ...
  • [3D]Конан-варвар в 3Д / Conan the Barbarian 3D (Маркус Ниспел / Marcus Nisp ...
  • Исходный код / Source Code (Дункан Джонс, фантастика, боевик, триллер, 2011 ...
  • Успеть за 30 минут / 30 Minutes or Less (Рубен Фляйшер, боевик,комедия,крим ...
  • Дети шпионов 4D / Spy Kids: All the Time in the World in 4D (Роберт Родриге ...
  • Конан-варвар / Conan the Barbarian (Маркус Ниспел, фэнтези, боевик, приключ ...
  • Дом грёз / Dream House (Джим Шеридан, триллер, драма, детектив, 2011) [BDRi ...
  • Закон доблести / Act of Valor (Майк МакКой, Скотт Во, боевик, триллер, прик ...
  • Проект X: Дорвались / Project X (Нима Нуризаде, комедия, 2012) [BDRip 720p, ...
  • Джок / Jock (Дункан МакНили, мультфильм, комедия, приключения, семейный, 20 ...
  • «Весёлые» каникулы / Get the Gringo (Адриан Грюнберг, Боевик, комедия, 2012 ...
  • Ворон / The Raven (Джеймс МакТиг, Триллер, детектив, 2012) [BDRip 720p, Дуб ...
  • Mylene Farmer / Du Temps [2011, Pop, HDTVRip]
  • Конан-варвар / Conan the Barbarian (Джон Милиус, Боевик, фэнтези, приключен ...
  • Конан Варвар / Conan the Barbarian (Джон Милиус / John Milius, боевик, прик ...
  • Конан-варвар / Conan the Barbarian (Маркус Ниспел, фэнтези, боевик, приключ ...
  • Конан-варвар / Conan the Barbarian (Маркус Ниспел, фэнтези, боевик, приключ ...
  • Конан-варвар / Conan the Barbarian (Маркус Ниспел, фэнтези, боевик, приключ ...
  • Конан-варвар / Conan the Barbarian (Маркус Ниспел,фэнтези, боевик, приключе ...
  • [3D] Конан-варвар / Conan the Barbarian (Маркус Ниспел, Фэнтези, боевик, пр ...
  • Информация
    Посетители, находящиеся в группе Гости, не могут оставлять комментарии к данной публикации.