вход на сайт

Имя пользователя :
Пароль :

Восстановление пароля Регистрация
Успеть за 30 минут / 30 Minutes or Less (Рубен Фляйшер, боевик,комедия,криминал,приключения, 2011) [BDRip 720p, Дублированный + Оригинал]
Рейтинг:
(голосов: 1)



[img]{THEME}/images/logopost.png[/img]



Успеть за 30 минут / 30 Minutes or Less



Год выпуска: 2011
Страна: США, Германия, Канада
Производство: Columbia Pictures, Media Rights Capital, Red Hour Films
Жанр: Боевик, комедия, криминал, приключения

Режиссёр: Рубен Фляйшер / Ruben Fleischer
В ролях: Джесси Айзенберг, Азиз Ансари, Дэнни МакБрайд, Ник Свардсон, Дилшэд Вэдсариа, Майкл Пенья, Бьянка Кайлич, Фред Уорд, Сэм Джонстон, Джек Фол

Перевод: Дублированный + Оригинал
Субтитры: Отсутствуют


Описание
Ник — простой разносчик пиццы, чья размеренная жизнь буквально в одно мгновенье переворачивается с ног на голову, когда в нее с хитроумным планом врываются два бандита, мечтающих сорвать большой куш. Безбашенная парочка похищает Ника с целью заставить его ограбить банк. Ник понимает, что ему никак не обойтись без помощи своего лучшего друга Чета. Вместе приятели должны обвести вокруг пальца похитителей, не попасться в руки полиции, да еще и разобраться друг с другом — ведь их отношения далеко не безоблачны. На эту практически невыполнимую миссию друзьям отведены считанные часы...Тех. данные
Качество: BDRip 720p
Продолжительность: 01:23:03

Формат: MKV
Видео кодек: AVC
Аудио кодек: AC3 / DTS
Видео: 1280x534 (2.35:1), 23.976 fps, AVC ,~4552kbps avg, 0.278 bit/pixel
Аудио#1: 48 kHz, AC3, 3/2 (L,C,R,l,r) + LFE ch, ~448.00 kbps avg - Дублированный - язык русский
Аудио#2: 48 kHz, DTS, 3/2 (L,C,R,l,r) + LFE ch, ~1536.00 kbps avg - Оригинал - язык английский

MediaInfo ▼TextGeneral
Complete name : E:Movis720pUspet.za.30.minut.2011.x264.BDRip.720p.mkv
Format : Matroska
File size : 3.78 GiB
Duration : 1h 23mn
Overall bit rate : 6 511 Kbps
Encoded date : UTC 2011-11-04 16:16:12
Writing application : mkvmerge v5.0.1 (Es ist Sommer) built on Oct 9 2011 11:55:43
Writing library : libebml v1.2.2 + libmatroska v1.3.0
Video
ID : 1
Format : AVC
Format/Info : Advanced Video Codec
Format profile : [email protected]
Format settings, CABAC : Yes
Format settings, ReFrames : 12 frames
Muxing mode : Container [email protected]
Codec ID : V_MPEG4/ISO/AVC
Duration : 1h 23mn
Bit rate : 4 552 Kbps
Width : 1 280 pixels
Height : 534 pixels
Display aspect ratio : 2.35:1
Frame rate : 23.976 fps
Color space : YUV
Chroma subsampling : 4:2:0
Bit depth : 8 bits
Scan type : Progressive
Bits/(Pixel*Frame) : 0.278
Stream size : 2.57 GiB (68%)
Title : 30.Minutes.or.Less.2011.BluRay.720p.DTS.x264-CHD
Writing library : x264 core 102 r1666 d058f37
Encoding settings : cabac=1 / ref=12 / deblock=1:-3:-3 / analyse=0x3:0x113 / me=umh / subme=10 / psy=1 / psy_rd=1.05:0.10 / mixed_ref=1 / me_range=32 / chroma_me=1 / trellis=2 / 8x8dct=1 / cqm=2 / deadzone=21,11 / fast_pskip=0 / chroma_qp_offset=-2 / threads=6 / sliced_threads=0 / nr=0 / decimate=1 / interlaced=0 / constrained_intra=0 / bframes=6 / b_pyramid=2 / b_adapt=2 / b_bias=0 / direct=3 / weightb=1 / open_gop=0 / weightp=2 / keyint=250 / keyint_min=25 / scenecut=40 / intra_refresh=0 / rc_lookahead=40 / rc=2pass / mbtree=1 / bitrate=4552 / ratetol=1.0 / qcomp=0.60 / qpmin=10 / qpmax=51 / qpstep=4 / cplxblur=20.0 / qblur=0.5 / vbv_maxrate=50000 / vbv_bufsize=50000 / ip_ratio=1.40 / aq=1:0.80 / nal_hrd=none
Language : English
Audio #1
ID : 2
Format : AC-3
Format/Info : Audio Coding 3
Mode extension : CM (complete main)
Codec ID : A_AC3
Duration : 1h 23mn
Bit rate mode : Constant
Bit rate : 448 Kbps
Channel(s) : 6 channels
Channel positions : Front: L C R, Side: L R, LFE
Sampling rate : 48.0 KHz
Bit depth : 16 bits
Stream size : 266 MiB (7%)
Title : DUB @ 448k
Language : Russian
Audio #2
ID : 3
Format : DTS
Format/Info : Digital Theater Systems
Codec ID : A_DTS
Duration : 1h 23mn
Bit rate mode : Constant
Bit rate : 1 510 Kbps
Channel(s) : 6 channels
Channel positions : Front: L C R, Side: L R, LFE
Sampling rate : 48.0 KHz
Bit depth : 24 bits
Stream size : 897 MiB (23%)
Title : 30.Minutes.or.Less.2011.DTS-HD.MA.C0re_1509kbps
Language : English
Text
ID : 4
Format : UTF-8
Codec ID : S_TEXT/UTF8
Codec ID/Info :
1fc2f7c7f242505f435051aff583d103bdb9d253Успеть за 30 минут / 30 Minutes or Less (Рубен Фляйшер, боевик,комедия,криминал,приключения, 2011) [BDRip 720p, Дублированный + Оригинал] Успеть за 30 минут / 30 Minutes or Less (Рубен Фляйшер, боевик,комедия,криминал,приключения, 2011) [BDRip 720p, Дублированный + Оригинал] " />

Аплоадер: Админ, дата: 5-11-2011, 02:48, торрент скачан: 359 раз

Понравилась раздача? Посмотрите эти:
  • Верное дельце / Une pure affaire (Александр Коффре, Боевик, Комедия, Кримин ...
  • Джекпот / Arme Riddere (Магнус Мартенс, Боевик, комедия, криминал, 2011) [B ...
  • Убить по расписанию / Ticking Clock (Эрни Барбараш, фантастика, боевик, три ...
  • Успеть за 30 минут / 30 Minutes or Less (Рубен Фляйшер,боевик,комедия,крими ...
  • Успеть за 30 минут / 30 Minutes or Less (Рубен Фляйшер, Боевик, 2011) [HDR ...
  • Успеть за 30 минут / 30 Minutes or Less (Рубен Фляйшер, боевик, комедия, кр ...
  • Успеть за 30 минут / 30 Minutes or Less (Рубен Фляйшер, боевик, комедия, кр ...
  • Успеть за 30 минут / 30 Minutes or Less (Рубен Фляйшер,боевик,комедия,крими ...
  • Успеть за 30 минут / 30 Minutes or Less (Рубен Фляйшер, комедия, 2011) [HDR ...
  • Исходный код / Source Code (Дункан Джонс, фантастика, боевик, триллер, 2011 ...
  • Успеть за 30 минут / 30 Minutes or Less (Рубен Фляйшер, боевик,комедия,крим ...
  • Дети шпионов 4D / Spy Kids: All the Time in the World in 4D (Роберт Родриге ...
  • Конан-варвар / Conan the Barbarian (Маркус Ниспел, фэнтези, боевик, приключ ...
  • Успеть за 30 минут / 30 Minutes or Less (Рубен Фляйшер, Боевик, 2011) [BDRe ...
  • Профессионал / Killer Elite (Гэри МакКендри, Боевик, Триллер, Криминал, 201 ...
  • Код Доступа «Кейптаун» / Safe House (Дэниэл Эспиноза, боевик, триллер, крим ...
  • Проект X: Дорвались / Project X (Нима Нуризаде, комедия, 2012) [BDRip 720p, ...
  • Джок / Jock (Дункан МакНили, мультфильм, комедия, приключения, семейный, 20 ...
  • Мачо и ботан / 21 Jump Street (Фил Лорд, Крис Миллер, боевик, комедия, 2012 ...
  • «Весёлые» каникулы / Get the Gringo (Адриан Грюнберг, Боевик, комедия, 2012 ...
  • Mylene Farmer / Du Temps [2011, Pop, HDTVRip]
  • Успеть за 30 минут / 30 Minutes or Less (Рубен Фляйшер,боевик,комедия,крими ...
  • Успеть за 30 минут / 30 Minutes or Less (Рубен Фляйшер, боевик, комедия, кр ...
  • [PSP] Успеть за 30 минут / 30 Minutes or Less (Рубен Фляйшер / Ruben Fleisc ...
  • Успеть за 30 минут / 30 Minutes or Less (Рубен Фляйшер, комедия, 2011) [HDR ...
  • Информация
    Посетители, находящиеся в группе Гости, не могут оставлять комментарии к данной публикации.