вход на сайт

Имя пользователя :
Пароль :

Восстановление пароля Регистрация
Секс по дружбе / Friends with Benefits (Уилл Глак, драма, мелодрама, комедия, 2011) [BDRip 720p, Дублированный + Оригинал]
Рейтинг:
(голосов: 1)



[img]{THEME}/images/logopost.png[/img]



Секс по дружбе / Friends with Benefits



Год выпуска: 2011
Страна: США
Производство: Castle Rock Entertainment, Olive Bridge Entertainment, Screen Gems, Zucker Productions
Жанр: Драма, мелодрама, комедия

Режиссёр: Уилл Глак
В ролях: Джастин Тимберлэйк, Мила Кунис, Патришия Кларксон, Дженна Элфмэн, Брайан Гринберг, Ричард Дженкинс, Вуди Харрельсон, Нолан Гоулд, Энди Сэмберг, Шон Уайт

Перевод: Дублированный + Оригинал
Субтитры: Отсутствуют


Описание
Главная героиня — сотрудник кадрового агентства, которую преследуют фобии в отношениях с обязательствами. Однако, эти проблемы оказываются надуманными, после того как она встречает редактора глянцевого журнала. Он, в свою очередь, устал от женщин, которые мечтают вступить с ним в связь. Таким образом, созданы все условия для бурного романа и столкновения характеров и желаний.Тех. данные
Качество: BDRip 720p
Продолжительность: 01:49:25

Формат: MKV
Видео кодек: AVC
Аудио кодек: AC3 / DTS
Видео: 1280x536 (2.35:1), 23.976 fps, AVC, ~4208 kbps avg, 0.256 bit/pixel
Аудио#1: 48 kHz, AC3, 3/2 (L,C,R,l,r) + LFE ch, ~384.00 kbps avg - Дублированный - язык русский
Аудио#2: 48 kHz, DTS, 3/2 (L,C,R,l,r) + LFE ch, ~1510.00 kbps avg - Оригинал - язык английский

MediaInfo ▼TextSeks.po.druzhbe.2011.D.BDRip.720p.mkv
Format : Matroska
File size : 4.67 GiB
Duration : 1h 49mn
Overall bit rate : 6 100 Kbps
Encoded date : UTC 2011-11-04 17:18:06
Writing application : mkvmerge v3.4.0 (Rapunzel) built on May 15 2010 09:38:20
Writing library : libebml v0.8.0 + libmatroska v0.9.0
Video
ID : 1
Format : AVC
Format/Info : Advanced Video Codec
Format profile : [email protected]
Format settings, CABAC : Yes
Format settings, ReFrames : 12 frames
Muxing mode : Container [email protected]
Codec ID : V_MPEG4/ISO/AVC
Duration : 1h 49mn
Bit rate : 4 208 Kbps
Width : 1 280 pixels
Height : 536 pixels
Display aspect ratio : 2.35:1
Frame rate : 23.976 fps
Color space : YUV
Chroma subsampling : 4:2:0
Bit depth : 8 bits
Scan type : Progressive
Bits/(Pixel*Frame) : 0.256
Stream size : 3.12 GiB (67%)
Writing library : x264 core 116 r2074 2641b9e
Encoding settings : cabac=1 / ref=12 / deblock=1:-4:-4 / analyse=0x3:0x133 / me=umh /
subme=10 / psy=1 / psy_rd=1.10:0.15 / mixed_ref=1 / me_range=32 / chroma_me=1 / trellis=2 /
8x8dct=1 / cqm=0 / deadzone=21,11 / fast_pskip=0 / chroma_qp_offset=-3 / threads=9 /
sliced_threads=0 / nr=0 / decimate=0 / interlaced=0 / bluray_compat=0 / constrained_intra=0 /
bframes=6 / b_pyramid=2 / b_adapt=2 / b_bias=0 / direct=3 / weightb=1 / open_gop=0 / weightp=2 /
keyint=360 / keyint_min=2 / scenecut=40 / intra_refresh=0 / rc_lookahead=90 / rc=2pass / mbtree=1 /
bitrate=4208 / ratetol=1.0 / qcomp=0.75 / qpmin=0 / qpmax=69 / qpstep=4 / cplxblur=20.0 / qblur=0.5
/ ip_ratio=1.40 / aq=2:1.00

Audio #1
ID : 2
Format : AC-3
Format/Info : Audio Coding 3
Mode extension : CM (complete main)
Codec ID : A_AC3
Duration : 1h 49mn
Bit rate mode : Constant
Bit rate : 384 Kbps
Channel(s) : 6 channels
Channel positions : Front: L C R, Side: L R, LFE
Sampling rate : 48.0 KHz
Bit depth : 16 bits
Stream size : 301 MiB (6%)
Title : Russian @ DD 5.1 @ 384 kbps
Language : Russian

Audio #2
ID : 3
Format : DTS
Format/Info : Digital Theater Systems
Codec ID : A_DTS
Duration : 1h 49mn
Bit rate mode : Constant
Bit rate : 1 510 Kbps
Channel(s) : 6 channels
Channel positions : Front: L C R, Side: L R, LFE
Sampling rate : 48.0 KHz
Bit depth : 16 bits
Stream size : 1.15 GiB (25%)
Title : English @ DTS 5.1 @ 1510 kbps
Language : English

Menu
00:00:00.000 : en:Chapter.01
00:05:23.698 : en:Chapter.02
00:12:34.211 : en:Chapter.03
00:17:42.686 : en:Chapter.04
00:24:20.917 : en:Chapter.05
00:32:57.225 : en:Chapter.06
00:41:28.819 : en:Chapter.07
00:45:45.868 : en:Chapter.08
00:54:45.407 : en:Chapter.09
00:58:58.868 : en:Chapter.10
01:03:57.041 : en:Chapter.11
01:13:44.753 : en:Chapter.12
01:20:59.729 : en:Chapter.13
01:27:09.599 : en:Chapter.14
01:32:0
b02a746aa62f32f9dbab57ddf637cc06a9ef1895Секс по дружбе / Friends with Benefits (Уилл Глак, драма, мелодрама, комедия, 2011) [BDRip 720p, Дублированный + Оригинал] Секс по дружбе / Friends with Benefits (Уилл Глак, драма, мелодрама, комедия, 2011) [BDRip 720p, Дублированный + Оригинал] " />

Аплоадер: Админ, дата: 5-11-2011, 00:31, торрент скачан: 359 раз

Понравилась раздача? Посмотрите эти:
  • Грязь / Filth (Джон С. Бейрд, криминал, драма, комедия, 2013) [BDRip-AVC, ...
  • Даю год / I Give It a Year (Дэн Мазер, Мелодрама, Комедия, 2013) [BDRip-AVC ...
  • Секс по дружбе / Friends with Benefits (Уилл Глак, драма, мелодрама, комеди ...
  • Секс по дружбе / Friends with Benefits (Уилл Глак, Комедия, 2011) [BDRip - ...
  • Жизнь прекрасна / La Vita è bella (Роберто Бениньи, Драма, мелодрама, комед ...
  • Секс по дружбе / Friends with Benefits (Уилл Глак, Драма, мелодрама, комеди ...
  • [3D] Шаг вперед 3D / Step Up 3D (Джон М. Чу, мелодрама, драма, музыка, 2010 ...
  • Секс по дружбе / Friends with Benefits (Уилл Глак, драма, мелодрама, комеди ...
  • Схватка / The Grey (Джо Карнахан, Боевик, 2012) [BDRip 720p, Профессиональн ...
  • Запрещенная реальность (Константин Максимов, фантастика, боевик, 2009) [BDR ...
  • Выкрутасы (Леван Габриадзе, мелодрама, комедия, спорт, 2011) [ВDRip 720p, Н ...
  • Ю-571 / U-571 (Джонатан Мостоу, Боевик, 2000) [BDRip - AVC, Дубляж + Субтит ...
  • Секс по дружбе / Friends with Benefits (Уилл Глак ,драма, мелодрама, комеди ...
  • Секс по дружбе / Friends with Benefits (Уилл Глак ,драма, мелодрама, комеди ...
  • Секс по дружбе / Friends with Benefits (Уилл Глак ,драма, мелодрама, комеди ...
  • Секс по дружбе / Friends with Benefits (Уилл Глак ,драма, мелодрама, комеди ...
  • Секс по дружбе / Friends with Benefits (Уилл Глак, драма, мелодрама, комеди ...
  • Секс по дружбе / Friends with Benefits (Уилл Глак, Комедия, 2011) [BDRip - ...
  • Секс по дружбе / Friends with Benefits (Уилл Глак, мелодрама, комедия, 2011 ...
  • Собачье сердце (Владимир Бортко, фантастика, драма, комедия, 1988) [BDRip 1 ...
  • Информация
    Посетители, находящиеся в группе Гости, не могут оставлять комментарии к данной публикации.