вход на сайт

Имя пользователя :
Пароль :

Восстановление пароля Регистрация
Трансформеры 3: Тёмная сторона Луны / Transformers: Dark of the Moon (Майкл Бэй, фантастика, боевик, приключения, 2011) [BDRip 1080p, полное дублирование + Оригинал]
Рейтинг:
(голосов: 1)



[img]{THEME}/images/logopost.png[/img]



Трансформеры 3: Тёмная сторона Луны / Transformers: Dark of the Moon
«Последний шанс цивилизации»

Год выпуска: 2011
Страна: США
Производство: Paramount Pictures
Жанр: фантастика, боевик, приключения
Режиссёр: Майкл Бэй
В ролях: Шайа ЛаБаф, Тайриз Гибсон, Роузи Хантингтон-Уайтли, Джош Дюамель, Джон Туртурро, Патрик Демпси, Кевин Данн, Джули Уайт, Рич Хатчмэн, Фрэнсис МакДорманд
Перевод: полное дублирование + Оригинал
Субтитры: (SRT): Русские, Английские
Описание: Для наших героев наступили печальные будни: Сэм потерял Микаэлу, правительство выпускает законодательный акт о выселении Автоботов с Земли, а пока Мегатрон скрывается после позорного поражения Фоллена, десептикон Шокуэйв, правитель Кибертрона, готовится нанести визит нашей планете с совсем не добрыми намерениями. Действие заключительной части трилогии на этот раз охватит не только Землю, но и Луну, темная сторона которой хранит не менее темные тайны.

Качество: BDRip 1080p
Продолжительность: 02:34:23
Формат: MKV
Видео кодек: AVC
Аудио кодек: DTS, АС3
Формат видео: 1920x800 (2.40:1), 18.2 Mbps,23.976 fps, 0.494 bit/pix
Russian: AC3, 640 kb/s (6 ch)
English: DTS, 1510 kb/s (6 ch)

MediaInfo ▼
Text
General
Complete name : Transformers.Dark.of.the.Moon.2011.D.1080p.BDRip.mkv
Format : Matroska
File size : 25.2 GiB
Duration : 2h 34mn
Overall bit rate : 23.4 Mbps
Movie name : BlackSnow
Encoded date : UTC 2011-10-22 15:13:07
Writing application : mkvmerge v3.4.0 (Rapunzel) сборка от May 15 2010 09:38:20
Writing library : libebml v0.8.0 + libmatroska v0.9.0

Video
ID : 1
Format : AVC
Format/Info : Advanced Video Codec
Format profile : [email protected]
Format settings, CABAC : Yes
Format settings, ReFrames : 5 frames
Codec ID : V_MPEG4/ISO/AVC
Duration : 2h 34mn
Bit rate : 18.2 Mbps
Width : 1 920 pixels
Height : 800 pixels
Display aspect ratio : 2.40:1
Frame rate : 23.976 fps
Color space : YUV
Chroma subsampling : 4:2:0
Bit depth : 8 bits
Scan type : Progressive
Bits/(Pixel*Frame) : 0.494
Stream size : 19.1 GiB (76%)
Title : Transformers.Dark.Of.The.Moon.2011.BluRay.1080p.x264.DTS-HDMaNiAcS
Writing library : x264 core 116 r2074 2641b9e
Encoding settings : cabac=1 / ref=5 / deblock=1:-3:-3 / analyse=0x3:0x113 / me=tesa / subme=11 / psy=1 / psy_rd=0.80:0.06 / mixed_ref=0 / me_range=24 / chroma_me=1 / trellis=2 / 8x8dct=1 / cqm=0 / deadzone=21,11 / fast_pskip=0 / chroma_qp_offset=-3 / threads=12 / sliced_threads=0 / nr=0 / decimate=1 / interlaced=0 / bluray_compat=0 / constrained_intra=0 / bframes=8 / b_pyramid=2 / b_adapt=2 / b_bias=0 / direct=3 / weightb=1 / open_gop=0 / weightp=2 / keyint=250 / keyint_min=23 / scenecut=40 / intra_refresh=0 / rc_lookahead=90 / rc=2pass / mbtree=1 / bitrate=18200 / ratetol=1.0 / qcomp=0.60 / qpmin=10 / qpmax=69 / qpstep=4 / cplxblur=20.0 / qblur=0.5 / ip_ratio=1.40 / aq=2:0.60
Language : English

Audio #1
ID : 2
Format : AC-3
Format/Info : Audio Coding 3
Mode extension : CM (complete main)
Codec ID : A_AC3
Duration : 2h 34mn
Bit rate mode : Constant
Bit rate : 640 Kbps
Channel(s) : 6 channels
Channel positions : Front: L C R, Side: L R, LFE
Sampling rate : 48.0 KHz
Bit depth : 16 bits
Stream size : 707 MiB (3%)
Title : DUB CCE
Language : Russian

Audio #2
ID : 5
Format : DTS
Format/Info : Digital Theater Systems
Codec ID : A_DTS
Duration : 2h 34mn
Bit rate mode : Constant
Bit rate : 1 510 Kbps
Channel(s) : 6 channels
Channel positions : Front: L C R, Side: L R, LFE
Sampling rate : 48.0 KHz
Bit depth : 24 bits
Stream size : 1.63 GiB (6%)
Title : Original
Language : English

Text #1
ID : 6
Format : UTF-8
Co
dd06eb40ad8168a8c6e3479a67c664bd5b1d9e54Трансформеры 3: Тёмная сторона Луны / Transformers: Dark of the Moon (Майкл Бэй, фантастика, боевик, приключения, 2011) [BDRip 1080p, полное дублирование + Оригинал] Трансформеры 3: Тёмная сторона Луны / Transformers: Dark of the Moon (Майкл Бэй, фантастика, боевик, приключения, 2011) [BDRip 1080p, полное дублирование + Оригинал] " />

Аплоадер: Админ, дата: 23-10-2011, 00:39, торрент скачан: 359 раз

Понравилась раздача? Посмотрите эти:
  • Трансформеры 3: Тёмная сторона Луны / Transformers: Dark of the Moon (Майкл ...
  • Трансформеры 3: Темная сторона Луны / Transformers: Dark of the Moon (Майкл ...
  • Трансформеры 3: Тёмная сторона Луны / Transformers: Dark of the Moon (Майкл ...
  • Трансформеры 3: Тёмная сторона Луны / Transformers: Dark of the Moon (Майкл ...
  • Трансформеры 3: Тёмная сторона Луны / Transformers: Dark of the Moon (Майкл ...
  • Трансформеры 3: Тёмная сторона Луны / Transformers: Dark of the Moon (Майкл ...
  • Трансформеры 3: Тёмная сторона Луны / Transformers: Dark of the Moon (Майкл ...
  • [3D] Трансформеры 3: Темная сторона Луны 3д / Transformers: Dark of the Moo ...
  • [3D]Трансформеры 3: Тёмная сторона Луны / Transformers: Dark of the Moon (М ...
  • Трансформеры 3: Тёмная сторона Луны / Transformers: Dark of the Moon (Майкл ...
  • Трансформеры 3: Тёмная сторона Луны / Transformers: Dark of the Moon (Майкл ...
  • Трансформеры 3: Тёмная сторона Луны / Transformers: Dark of the Moon (Майкл ...
  • Трансформеры 3: Темная сторона Луны / Transformers: Dark of the Moon (Майкл ...
  • Трансформеры 3: Тёмная сторона Луны / Transformers: Dark of the Moon (Майкл ...
  • Трансформеры 3: Тёмная сторона Луны / Transformers: Dark of the Moon (Майкл ...
  • Трансформеры 3: Тёмная сторона Луны / Transformers: Dark of the Moon (Майкл ...
  • Трансформеры 3: Тёмная сторона Луны / Transformers 3: Dark of the Moon (Май ...
  • Трансформеры 3: Тёмная сторона Луны / Transformers: Dark of the Moon (Майкл ...
  • Трансформеры 3: Тёмная сторона Луны / Transformers: Dark of the Moon (Майкл ...
  • Трансформеры 3: Тёмная сторона Луны / Transformers: Dark of the Moon (Майкл ...
  • Трансформеры 3: Тёмная сторона Луны / Transformers: Dark of the Moon (Майкл ...
  • Трансформеры 3: Тёмная сторона Луны / Transformers: Dark of the Moon CEE (М ...
  • Трансформеры 3:Тёмная сторона Луны/Transformers:Dark of the Moon (фантастик ...
  • Трансформеры 3: Тёмная сторона Луны / Transformers: Dark of the Moon (Майкл ...
  • [3D] Трансформеры 3: Тёмная сторона Луны 3D / Transformers: Dark of the Moo ...
  • Информация
    Посетители, находящиеся в группе Гости, не могут оставлять комментарии к данной публикации.