вход на сайт

Имя пользователя :
Пароль :

Восстановление пароля Регистрация
Битва Титанов / Clash of the Titans (Луи Летерье, фэнтези, боевик, приключения, 2010) [BDRip 1080р, полное дублирование + авторский, одноголосый (А. Гаврилов) + оригинал]
Рейтинг:
(голосов: 1)



[img]{THEME}/images/logopost.png[/img]



Битва Титанов / Clash of the Titans
«Легенды оживают в 3D»

Год выпуска: 2010
Страна: США
Производство: Legendary Pictures, Warner Bros. Pictures
Жанр: фэнтези, боевик, приключения

Режиссёр: Луи Летерье
В ролях: Сэм Уортингтон, Лиам Нисон, Рэйф Файнс, Джейсон Флеминг, Джемма Артертон, Алекса Давалос, Тине Штапельфелдт, Мадс Миккельсен, Люк Эванс, Изабелла Мико

Перевод: полное дублирование + авторский, одноголосый (А. Гаврилов) + оригинал
Субтитры: Russian (voronine), English, Czech, Finnish, French, Croatian, Hungarian, Portuguese, Romanian, Slovak, Spanish, Swedish

Описание:
Персей, сын бога, воспитанный человеком, не смог защитить свою семью от Аида, мстительного повелителя подземного мира. Теперь ему уже нечего терять, и он добровольно соглашается возглавить опасную миссию, чтобы одержать победу над Аидом до того, как тот отберет власть у Зевса и выпустит демонов подземного царства на Землю.

Возглавляя отряд бесстрашных воинов, Персей отправляется в рискованное путешествие по лабиринту запретных миров. Чтобы победить в свирепой схватке с жуткими демонами и злобными чудовищами, противостоять злому року и стать хозяином своей судьбы, он должен осознать и принять свою божественную силу.

IMDB: 5.80 (75 972)
КиноПоиск: 6.017 (29 844)

Качество: BDRip 1080р
Продолжительность: 01:46:07

Формат: MKV
Видео кодек: AVC
Аудио кодек: AC3, DTS
Формат видео: 1920x800p, (2.40:1), 23,976 fps, 11.0 Mbps, 0.299 bit/pixel
Формат аудио:
Аудио №1: Russian; AC3; 448 Kbps; CBR; 6 ch | Лицензия
Аудио №2: Russian; DTS; 1509 Kbps; CBR; 6 ch; 24 bit | А. Гаврилов
Аудио №3: English; DTS; 1509 Kbps; CBR; 6 ch; 24 bit


MediaInfo ▼
General
Complete name : D:Clash.of.the.Titans.2010.1080p.BluRay.x264.RUS.ENG.mkv
Format : Matroska
File size : 10.7 GiB
Duration : 1h 46mn
Overall bit rate : 14.5 Mbps
Movie name : Clash of the Titans (2010) - rutracker.org
Encoded date : UTC 2010-09-16 15:13:01
Writing application : mkvmerge v4.3.0 (Escape from the Island) сборка от Sep 5 2010 10:30:51
Writing library : libebml v1.0.0 + libmatroska v1.0.0

Video
ID : 1
Format : AVC
Format/Info : Advanced Video Codec
Format profile : [email protected]
Format settings, CABAC : Yes
Format settings, ReFrames : 5 frames
Muxing mode : Container [email protected]
Codec ID : V_MPEG4/ISO/AVC
Duration : 1h 46mn
Bit rate : 11.0 Mbps
Width : 1 920 pixels
Height : 800 pixels
Display aspect ratio : 2.40:1
Frame rate : 23.976 fps
Color space : YUV
Chroma subsampling : 4:2:0
Bit depth : 8 bits
Scan type : Progressive
Bits/(Pixel*Frame) : 0.299
Stream size : 7.94 GiB (74%)
Title : Clash of the Titans (2010) EbP
Writing library : x264 core 102 r1666 d058f37
Encoding settings : cabac=1 / ref=5 / deblock=1:-3:-3 / analyse=0x3:0x113 / me=tesa / subme=10 / psy=1 / psy_rd=1.00:0.00 / mixed_ref=1 / me_range=16 / chroma_me=1 / trellis=2 / 8x8dct=1 / cqm=0 / deadzone=21,11 / fast_pskip=0 / chroma_qp_offset=-2 / threads=12 / sliced_threads=0 / nr=0 / decimate=0 / interlaced=0 / constrained_intra=0 / bframes=7 / b_pyramid=2 / b_adapt=2 / b_bias=0 / direct=3 / weightb=1 / open_gop=1 / weightp=2 / keyint=250 / keyint_min=25 / scenecut=40 / intra_refresh=0 / rc_lookahead=40 / rc=2pass / mbtree=1 / bitrate=11000 / ratetol=1.0 / qcomp=0.60 / qpmin=10 / qpmax=51 / qpstep=4 / cplxblur=20.0 / qblur=0.5 / ip_ratio=1.40 / aq=1:0.80

Audio #1
ID : 2
Format : AC-3
Format/Info : Audio Coding 3
Mode extension : CM (complete main)
Codec ID : A_AC3
Duration : 1h 46mn
Bit rate mode : Constant
Bit rate : 448 Kbps
Channel(s) : 6 channels
Channel positions : Front: L C R, Side: L R, LFE
Sampling rate : 48.0 KHz
Stream size : 340 MiB (3%)
Title : AC3 5.1 @ 448 kbps (Дубляж)
Language : Russian

Audio #2
ID : 3
Format : DTS
Format/Info : Digital Theater Systems
Codec ID : A_DTS
Duration : 1h 46mn
Bit rate mode : Constant
Bit rate : 1 510 Kbps
Cha
db3e755c597586a6fcb59808970b68517f9f2b42Битва Титанов / Clash of the Titans (Луи Летерье, фэнтези, боевик, приключения, 2010) [BDRip 1080р, полное дублирование + авторский, одноголосый (А. Гаврилов) + оригинал] Битва Титанов / Clash of the Titans (Луи Летерье, фэнтези, боевик, приключения, 2010) [BDRip 1080р, полное дублирование + авторский, одноголосый (А. Гаврилов) + оригинал] " />

Аплоадер: Админ, дата: 21-10-2011, 09:12, торрент скачан: 359 раз

Понравилась раздача? Посмотрите эти:
  • Жизнь Пи / Life Of Pi (Энг Ли, Драма, приключения, 2012) [BDRip 1080p, Проф ...
  • Битва Титанов / Clash of the Titans (Луи Летерье / Louis Leterrier,Боевик, ...
  • Битва Титанов / Clash of the Titans (Луи Летерье, боевик, фэнтези, драма, п ...
  • Битва Титанов / Clash of the Titans (Луи Летерье, фэнтези, боевик, приключе ...
  • Вальгалла: Сага о викинге / Valhalla Rising (Николас Виндинг Рёфн, боевик, ...
  • Охота за "Красным Октябрём" / The Hunt for "Red October" (Джон МакТирнан, б ...
  • Роб Рой / Rob Roy (Майкл Кейтон-Джонс, боевик, драма, мелодрама, 1995) [BDR ...
  • [3D] Пираньи 3Д / Piranha 3D (Александр Ажа / Alexandre Aja, ужасы, боевик, ...
  • [3D] Битва Титанов / Clash of the Titans (Луи Летерье , боевик, фэнтези, др ...
  • [3D] Шаг вперед 3D / Step Up 3D (Джон М. Чу, мелодрама, драма, музыка, 2010 ...
  • Битва Титанов / Clash of the Titans (Луи Летерье, боевик, фэнтези, драма, п ...
  • Битва Титанов / Clash of the Titans (Луи Летерье, боевик, фэнтези, драма, п ...
  • Трансформеры 3: Тёмная сторона Луны / Transformers: Dark of the Moon (Майкл ...
  • Конан-варвар / Conan the Barbarian (Маркус Ниспел, фэнтези, боевик, приключ ...
  • Mylene Farmer / Du Temps [2011, Pop, HDTVRip]
  • Битва Титанов / Clash of the Titans (Луи Летерье, боевик, фэнтези, драма, п ...
  • Битва Титанов / Clash of the Titans (Луи Летерье,боевик, фэнтези, драма, пр ...
  • Битва Титанов / Clash of the Titans (Луи Летерье, Боевик, фэнтези, драма, п ...
  • Битва титанов / Clash of the Titans (Луи Летерье, боевик, фэнтези, драма, п ...
  • Битва титанов / Clash of the Titans (Луи Летерье / Louis Leterrier, боевик, ...
  • Битва титанов 3D / Clash of the Titans 3D (Луи Летерье / Фэнтези, боевик, ...
  • Битва Титанов в 3Д / Clash of the Titans 3D (Луи Летерье / Louis Leterrier, ...
  • Битва Титанов / Clash of the Titans (Луи Летерье, фэнтези, боевик, приключе ...
  • Битва Титанов / Clash of the Titans (Луи Летерье, Боевик, Фэнтези, Драма, П ...
  • Битва Титанов / Clash of the Titans (Луи Летерье, боевик, фэнтези, драма, п ...
  • Информация
    Посетители, находящиеся в группе Гости, не могут оставлять комментарии к данной публикации.