вход на сайт

Имя пользователя :
Пароль :

Восстановление пароля Регистрация
Зеленый Фонарь / Green Lantern (Мартин Кэмпбелл / Martin Campbell, фантастика, боевик, триллер, криминал, 2011) [BDRip 720p,Профессиональный (дублированный)]
Рейтинг:
(голосов: 1)



[img]{THEME}/images/logopost.png[/img]



Зеленый Фонарь / Green Lantern

Год выпуска: 2011
Страна: США
Производство: Warner Bros. Pictures, De Line Pictures, DC Entertainment
Жанр: фантастика, боевик, триллер, криминал

Режиссёр: Мартин Кэмпбелл / Martin Campbell
В ролях: Райан Рейнольдс, Блейк Лайвли, Питер Сарсгаард, Марк Стронг, Темуэра Моррисон, Дженна Крэйг, Джон Тенни, Майк Дойл, Гэтлин Гриффит, Николас Джендл

Перевод: Профессиональный (дублированный)
Субтитры: нет

Описание: Во Вселенной, столь же бесконечной, сколь и загадочной, многие века существовал отряд воинов, обладающих огромной силой. Защитники мира и справедливости, их называют Корпус Зеленых Фонарей. Братство воинов, поклявшихся защищать межгалактический закон, где каждый из них носит кольцо, дарующее ему сверхспособности. Но когда новый враг по имени Параллакс угрожает нарушить равновесие во Вселенной, их судьба и судьба Земли оказывается в руках новобранца, первого человека в истории отряда — Хэла Джордана.
Хэл — дерзкий и талантливый летчик-испытатель, но Зеленые Фонари не испытывают доверия и уважения к человечеству, ведь людям до этого ни разу не удалось обуздать безграничную силу кольца. Но Хэл — как недостающий кусочек мозаики, и вместе с решимостью и силой воли он обладает тем, чего не было ни у одного звездного воителя, — человечностью. Если при поддержке напарника и подруги детства Кэрол Феррис (Блейк Лайвли) Хэл сможет быстро научиться управлять мощью кольца и найдет мужество преодолеть свои страхи, он сможет не только доказать, что он является ключом к победе над Параллаксом… но и станет величайшим Зеленым Фонарем из всех.

IMDB: 6.1 (36292)
КиноПоиск: 6.20 (8092)

mediainfo:
▼General
Complete name : Zeleniy.Fonar.2011.D.BDRip.720p.mkv
Format : Matroska
File size : 4.36 GiB
Duration : 1h 54mn
Overall bit rate : 5 477 Kbps
Encoded date : UTC 2011-10-06 17:21:52
Writing application : mkvmerge v4.5.0 (Speed of Light) built on Feb 15 2011 12:50:20
Writing library : libebml v1.2.0 + libmatroska v1.1.0
Video
ID : 1
Format : AVC
Format/Info : Advanced Video Codec
Format profile : [email protected]
Format settings, CABAC : Yes
Format settings, ReFrames : 5 frames
Format settings, GOP : M=4, N=16
Muxing mode : Container [email protected]
Codec ID : V_MPEG4/ISO/AVC
Duration : 1h 54mn
Bit rate : 5 030 Kbps
Width : 1 280 pixels
Height : 536 pixels
Display aspect ratio : 2.35:1
Frame rate : 23.976 fps
Color space : YUV
Chroma subsampling : 4:2:0
Bit depth : 8 bits
Scan type : Progressive
Bits/(Pixel*Frame) : 0.306
Stream size : 3.92 GiB (90%)
Writing library : x264 core 116 r2057 0ba8a9c
Encoding settings : cabac=1 / ref=5 / deblock=1:0:0 / analyse=0x3:0x113 / me=umh / subme=7 / psy=1 / psy_rd=1.00:0.15 / mixed_ref=1 / me_range=16 / chroma_me=1 / trellis=1 / 8x8dct=1 / cqm=0 / deadzone=21,11 / fast_pskip=0 / chroma_qp_offset=-3 / threads=12 / sliced_threads=0 / nr=0 / decimate=1 / interlaced=0 / bluray_compat=0 / constrained_intra=0 / bframes=3 / b_pyramid=2 / b_adapt=1 / b_bias=0 / direct=1 / weightb=1 / open_gop=0 / weightp=2 / keyint=250 / keyint_min=23 / scenecut=40 / intra_refresh=0 / rc_lookahead=40 / rc=2pass / mbtree=1 / bitrate=5030 / ratetol=1.0 / qcomp=0.60 / qpmin=0 / qpmax=69 / qpstep=4 / cplxblur=20.0 / qblur=0.5 / ip_ratio=1.40 / aq=1:1.00
Audio
ID : 2
Format : AC-3
Format/Info : Audio Coding 3
Mode extension : CM (complete main)
Codec ID : A_AC3
Duration : 1h 54mn
Bit rate mode : Constant
Bit rate : 448 Kbps
Channel(s) : 6 channels
Channel positions : Front: L C R, Side: L R, LFE
Sampling rate : 48.0 KHz
Bit depth : 16 bits
Video delay : 18s 865ms
Stream size : 365 MiB (8%)
Language : Russian
Menu
00:00:00.000 : en:00:00:00.000
00:06:36.730 : en:00:06:36.730
00:16:35.995 : en:00:16:35.995
00:24:36.141 : en:00:24:36.141
00:33:13.950 : en:00:33:13.950
00:40:33.806 : en:00:40:33.806
00:48:23.859 : en:00:48:23.859
00:57:02.711 : en:00:57:02.711
01:04:24.569 : e
429c66876d68a55d515f1b636a44dbce461aa4d2Зеленый Фонарь / Green Lantern (Мартин Кэмпбелл / Martin Campbell, фантастика, боевик, триллер, криминал, 2011) [BDRip 720p,Профессиональный (дублированный)] Зеленый Фонарь / Green Lantern (Мартин Кэмпбелл / Martin Campbell, фантастика, боевик, триллер, криминал, 2011) [BDRip 720p,Профессиональный (дублированный)] " />

Аплоадер: Админ, дата: 7-10-2011, 19:36, торрент скачан: 359 раз

Понравилась раздача? Посмотрите эти:
  • Зеленый Фонарь (Расширенная версия) / Green Lantern (Extended Cut) (Мартин ...
  • Зеленый Фонарь / Green Lantern (Мартин Кэмпбелл, фантастика, боевик, трилле ...
  • Убить по расписанию / Ticking Clock (Эрни Барбараш, фантастика, боевик, три ...
  • Зеленый Фонарь / Green Lantern (Мартин Кэмпбелл, фантастика, боевик, трилле ...
  • Зеленый Фонарь / Green Lantern [UNRATED] (Мартин Кэмпбелл, фантастика, боев ...
  • Зеленый Фонарь (Расширенная версия) / Green Lantern (Extended Cut) (Мартин ...
  • Зеленый Фонарь / Green Lantern [Theatrical Cut] (Мартин Кэмпбелл, фантастик ...
  • [3D] Зеленый Фонарь в 3Д / Green Lantern 3D (Мартин Кэмпбелл / Martin Campb ...
  • [3D] Зеленый Фонарь 3D / Green Lantern 3D (Мартин Кэмпбелл, Фантастика, 201 ...
  • Исходный код / Source Code (Дункан Джонс, фантастика, боевик, триллер, 2011 ...
  • Зеленый Фонарь (Расширенная версия) / Green Lantern (Extended Edition) (Мар ...
  • Зеленый Фонарь / Green Lantern [Театральная версия / Theatrical Version] (М ...
  • Зеленый Фонарь / Green Lantern [Театральная версия / Theatrical Version] (М ...
  • Зеленый Фонарь (Театральная версия) / Green Lantern (Theatrical Cut) (Марти ...
  • Зеленый Фонарь / Green Lantern (Мартин Кэмпбелл, фантастика, боевик, трилле ...
  • Зеленый Фонарь / Green Lantern (Мартин Кэмпбелл, фантастика, фэнтези, боеви ...
  • Зеленый Фонарь / Green Lantern (Мартин Кэмпбелл, фантастика, боевик, трилле ...
  • Зеленый Фонарь / Green Lantern (Мартин Кэмпбелл, фантастика, фэнтези, боеви ...
  • Зеленый Фонарь / Green Lantern (Мартин Кэмпбелл, фантастика, боевик, трилле ...
  • Зеленый Фонарь / Green Lantern [UNRATED] (Мартин Кэмпбелл, фантастика, боев ...
  • Зеленый Фонарь / Green Lantern [UNRATED] (Мартин Кэмпбелл, фантастика, боев ...
  • [3D] Зелёный Фонарь / Green Lantern (Мартин Кэмпбелл, фантастика, фэнтези, ...
  • Зеленый Фонарь / Green Lantern (Мартин Кэмпбелл, фантастика, боевик, трилле ...
  • Зелёный Фонарь / Green Lantern [Extended Cut / Расширенная версия] (Мартин ...
  • [3D] Зеленый Фонарь / Green Lantern (Мартин Кэмпбелл, Фантастика, Приключен ...
  • Информация
    Посетители, находящиеся в группе Гости, не могут оставлять комментарии к данной публикации.