вход на сайт

Имя пользователя :
Пароль :

Восстановление пароля Регистрация
Очень плохая училка (Расширенная версия) / Bad Teacher (UNRATED) (Джейк Кэздан, комедия, 2011) [BDRip 720p, Дублированный + Оригинал]
Рейтинг:
(голосов: 1)



[img]{THEME}/images/logopost.png[/img]



Очень плохая училка / Bad Teacher


Год выпуска: 2011
Страна: США
Производство: Columbia Pictures
Жанр:Комедия

Режиссёр: Джейк Кэздан / Jake Kasdan
В ролях: Кэмерон Диаз, Джастин Тимберлэйк, Джейсон Сигел, Люси Панч, Филлис Смит, Джон Майкл Хиггинс, Дэйв Аллен, Джиллиан Арменанте, Мэттью Дж. Эванс, Кейтлин Девер, Кэтрин Ньютон, Игал Беняир, Аджа Баир, Андра Нечита, Ной Манк, Финнеас О’Коннелл, Дэниэл Кастро, Адриан Кали Тернер, Эрик Стоунстрит, Томас Леннон, Пол Бейтс, Джефф Джуда, Нат Факсон, Стефани Фэраси, Дэвид Пэймер, Аланна Юбак, Кристин Смит, Пол Фейг, Дирдри Лавджой, Мелвин Мар, Роуз Абду, Джерри Ламберт, Дженнифер Ирвин, Кристофер Роквел, Дэвид Доути, Молли Шеннон, Рик Овертон, Дэнни Треп, Мэтт Бессер, Ли Эйзенберг, Джордан Ван Вранкен

Перевод: Профессиональный (дублированный)Лицензия + Оригинал
Субтитры: отсутствуют

Описание:
Учительница средних классов живет гламурной жизнью светской львицы, ходит на работу как на вечеринку и мечтает об увеличении объема собственного бюста. Однако после внезапного разрыва с богатым бойфрендом ее образ жизни резко меняется, хотя сама она это осознает не сразу. Но когда в их школу приходит новый преподаватель, она совершенно теряет голову и начинает охоту за… деньгами.

Доп. информация: UNRATED-версия не выходила в дубляже. Отсутствует 6 минут перевода!

MediaInfo: ▼
General
Complete name : D:Ochen.plohaja.uchilka.2011.x264.BDRip(720p).mkv
Format : Matroska
File size : 5.26 GiB
Duration : 1h 37mn
Overall bit rate : 7 717 Kbps
Encoded date : UTC 2011-09-26 20:37:52
Writing application : mkvmerge v4.9.1 (Ich will) сборка от Jul 11 2011 23:53:15
Writing library : libebml v1.2.1 + libmatroska v1.1.1

Video
ID : 1
Format : AVC
Format/Info : Advanced Video Codec
Format profile : [email protected]
Format settings, CABAC : Yes
Format settings, ReFrames : 9 frames
Muxing mode : Container [email protected]
Codec ID : V_MPEG4/ISO/AVC
Duration : 1h 37mn
Bit rate : 5 669 Kbps
Nominal bit rate : 5 822 Kbps
Width : 1 280 pixels
Height : 694 pixels
Display aspect ratio : 16:9
Frame rate : 23.976 fps
Resolution : 8 bits
Colorimetry : 4:2:0
Scan type : Progressive
Bits/(Pixel*Frame) : 0.266
Stream size : 3.86 GiB (73%)
Writing library : x264 core 102 r1666 d058f37
Encoding settings : cabac=1 / ref=9 / deblock=1:-3:-3 / analyse=0x3:0x113 / me=umh / subme=10 / psy=1 / psy_rd=1.05:0.10 / mixed_ref=1 / me_range=32 / chroma_me=1 / trellis=2 / 8x8dct=1 / cqm=2 / deadzone=21,11 / fast_pskip=0 / chroma_qp_offset=-2 / threads=6 / sliced_threads=0 / nr=0 / decimate=1 / interlaced=0 / constrained_intra=0 / bframes=6 / b_pyramid=2 / b_adapt=2 / b_bias=0 / direct=3 / weightb=1 / open_gop=0 / weightp=2 / keyint=250 / keyint_min=25 / scenecut=40 / intra_refresh=0 / rc_lookahead=40 / rc=2pass / mbtree=1 / bitrate=5822 / ratetol=1.0 / qcomp=0.60 / qpmin=10 / qpmax=51 / qpstep=4 / cplxblur=20.0 / qblur=0.5 / vbv_maxrate=50000 / vbv_bufsize=50000 / ip_ratio=1.40 / aq=1:0.80 / nal_hrd=none

Audio #1
ID : 2
Format : AC-3
Format/Info : Audio Coding 3
Codec ID : A_AC3
Duration : 1h 37mn
Bit rate mode : Constant
Bit rate : 384 Kbps
Channel(s) : 6 channels
Channel positions : Front: L C R, Surround: L R, LFE
Sampling rate : 48.0 KHz
Stream size : 268 MiB (5%)
Language : Russian

Audio #2
ID : 3
Format : DTS
Format/Info : Digital Theater Systems
Codec ID : A_DTS
Duration : 1h 37mn
Bit rate mode : Constant
Bit rate : 1 510 Kbps
Channel(s) : 6 channels
Channel positions : Front: L C R, Surround: L R, LFE
Sampling rate : 48.0 KHz
Resolution : 24 bits
Stream size : 1.03 GiB (20%)


Качество:BDRip 720p - [email protected]
Продолжительность:01:37:37

Формат: MKV
Видео кодек: AVC
Аудио кодек: DTS,AC3
Видео: MPEG-4 AVC, 5822 Кбит/с, 1280x694, 23.976 кадр/с
Аудио1: 48 kHz, AC3 Dolby Digital, 6 ch, ~384 kbps--Русский
Аудио2: DTS, 6
bf22b1b7c78873f87ffe4275780820dc2e85e65cОчень плохая училка (Расширенная версия) / Bad Teacher (UNRATED) (Джейк Кэздан, комедия, 2011) [BDRip 720p, Дублированный + Оригинал] Очень плохая училка (Расширенная версия) / Bad Teacher (UNRATED) (Джейк Кэздан, комедия, 2011) [BDRip 720p, Дублированный + Оригинал] " />

Аплоадер: Админ, дата: 27-09-2011, 17:31, торрент скачан: 359 раз

Понравилась раздача? Посмотрите эти:
  • Очень плохая училка [Расширенная версия] / Bad Teacher (Джейк Кэздан, Комед ...
  • Убить Боно / Killing Bono (Ник Хэмм, комедия, 2010) [BDRip 720p, Профессион ...
  • Очень плохая училка / Bad Teacher (Джейк Кэздан, Комедия, 2011) [DVDRip-AVC ...
  • Чудаки 3D (Расширенная версия) / Jackass 3 (Unrated) (Джефф Треймейн, комед ...
  • Очень плохая училка / Bad Teacher(Джейк Кэздан, комедия, 2011) [HDRip, Проф ...
  • Очень плохая училка/ Bad Teacher [UNRATED] (Джейк Кэздан, комедия, 2011)[BD ...
  • Очень плохая училка | Bad Teacher [UNRATED] (Джейк Кэздан, комедия, 2011)[H ...
  • Очень плохая училка / Bad Teacher [UNRATED] (Джейк Кэздан, комедия , 2011) ...
  • Очень плохая училка / Bad Teacher [UNRATED] (Джейк Кэздан, комедия , 2011) ...
  • [3D] Panasonic Demo Disc 3D 2010-2011 [BDrip-AVC 1080p-720p][Оригинал][Anam ...
  • Мой парень из зоопарка / Zookeeper (Фрэнк Корачи, мелодрама, комедия, семей ...
  • Очень плохая училка / Bad Teacher [UNRATED] (Джейк Кэздан, комедия, 2011) [ ...
  • Секс по дружбе / Friends with Benefits (Уилл Глак, драма, мелодрама, комеди ...
  • Успеть за 30 минут / 30 Minutes or Less (Рубен Фляйшер, боевик,комедия,крим ...
  • Путешествие на край Вселенной / Journey to the Edge of the Universe (Явар А ...
  • Коломбиана [Расширенная версия] / Colombiana [Unrated Cut] (Оливье Мегатон, ...
  • Mylene Farmer / Du Temps [2011, Pop, HDTVRip]
  • Mylene Farmer / Bleu Noir [2011, Pop, HDTVRip]
  • Очень плохая училка / Bad Teacher (Джейк Кэздан, комедия, 2011) [320х176] [ ...
  • Очень плохая училка / Bad Teacher (Джейк Кэздан, комедия, 2011) [DVD-5, Дуб ...
  • Очень плохая училка / Bad Teacher (Джейк Кэздан, комедия, 2011) [DVDRip, Ду ...
  • Очень плохая училка / Bad Teacher (Джейк Кэздан, комедия, 2011) [DVDRip, Ду ...
  • Очень плохая училка / Bad Teacher (Джейк Кэздан, Комедия, 2011) [DVDRip - A ...
  • Очень плохая училка / Bad Teacher [UNRATED] (Джейк Кэздан, комедия, 2011) [ ...
  • [ENG] Очень плохая училка / Bad Teacher (Джейк Кэздан, комедия, 2011) [DVDR ...
  • Информация
    Посетители, находящиеся в группе Гости, не могут оставлять комментарии к данной публикации.