вход на сайт

Имя пользователя :
Пароль :

Восстановление пароля Регистрация
Час пик 3 / Rush Hour 3 (Бретт Рэтнер / Brett Ratner, Боевик, триллер, комедия, криминал, 2007) [BDRemux, Профессиональный (полное дублирование)]
Рейтинг:
(голосов: 1)



[img]{THEME}/images/logopost.png[/img]



Час пик 3 / Rush Hour 3

Год выпуска: 2007
Страна: США, Франция
Производство: New Line Cinema
Жанр: Боевик, триллер, комедия, криминал

Режиссёр: Бретт Рэтнер
В ролях: Крис Такер, Джеки Чан, Хироюки Санада, Йоуки Кудо, Макс Фон Сюдов, Айван Аттал, Ноеми Ленуар, Жинчу Чжан, Тзи Ма, Роман Полански

Перевод: Профессиональный (полное дублирование)+ английский (оригинал)
Субтитры: Русские (только на китайские диалоги),Русские,Украинские,Английские,Английские (PGS)

Описание: Лос-анджелесского полицейского Джеймса Картера, допустившего грубую ошибку при аресте подозреваемого, переводят нагораздо менее престижную должность в дорожной полиции. Тем временем гонконгский полицейский инспектор Ли получает спецзадание: он должен охранять китайского посла Хана, который направляется в Лос-Анджелес, чтобы произнести там речь на саммите Всемирного уголовного суда.
Хан намеревается разоблачить интриги китайской Триады — самого опасного криминального синдиката в мире — и вывести на чистую воду преступных боссов. Представители Триады, разумеется, не дремлют. Они отправляют в Лос-Анджелес наемного убийцу, которому удается ранить посла в тот самый момент, когда он начинает произносить свою разоблачительную речь. Ли бросается вдогонку за преступником. Тем временем Картер, услышав по полицейскому радио сообщение о покушении на посла, мчится на место преступления… и, естественно, только путается под ногами у Ли.

IMDB: 6.00 (46 838)
КиноПоиск: 6.952(10 207)


MediaInfo ▼Общее
Уникальный идентификатор : 227323131765250332118690912154029223801 (0xAB04D7B8083C649F90952E1AA9816F79)
Полное имя : D:Sinner1ФильмыRush Hour 3Час пик 3.mkv
Формат : Matroska
Версия формата : Version 2
Размер файла : 13,8 Гбайт
Продолжительность : 1 ч. 30 м.
Общий поток : 21,8 Мбит/сек
Название фильма : HANSMER
Дата кодирования : UTC 2011-05-19 21:36:10
Программа кодирования : mkvmerge v4.7.0 (Just Like You Imagined) сборка от Apr 21 2011 01:13:14
Библиотека кодирования : libebml v1.2.0 + libmatroska v1.1.0

Видео
Идентификатор : 1
Формат : VC-1
Профиль формата : [email protected]
Идентификатор кодека : WVC1
Идентификатор кодека/Подсказка : Microsoft
Продолжительность : 1 ч. 30 м.
Битрейт : 19,1 Мбит/сек
Ширина : 1920 пикс.
Высота : 1080 пикс.
Соотношение сторон : 16:9
Частота кадров : 23,976 кадр/сек
Подвыборка цветности : 4:2:0
Битовая глубина : 8 бит
Тип развёртки : Прогрессивная
Метод сжатия : С потерями
Бит/(Пиксели*Кадры) : 0.384
Размер потока : 12,1 Гбайт (88%)
Заголовок : 15859 kbps
Язык : English

Аудио #1
Идентификатор : 2
Формат : AC-3
Формат/Информация : Audio Coding 3
Расширение режима : CM (complete main)
Идентификатор кодека : A_AC3
Продолжительность : 1 ч. 30 м.
Вид битрейта : Постоянный
Битрейт : 448 Кбит/сек
Каналы : 6 каналов
Расположение каналов : Front: L C R, Side: L R, LFE
Частота : 48,0 КГц
Битовая глубина : 16 бит
Метод сжатия : С потерями
Размер потока : 291 Мбайт (2%)
Язык : Russian

Аудио #2
Идентификатор : 3
Формат : DTS
Формат/Информация : Digital Theater Systems
Профиль формата : MA / Core
Идентификатор кодека : A_DTS
Продолжительность : 1 ч. 30 м.
Вид битрейта : Переменный
Битрейт : 1648 Кбит/сек / 1510 Кбит/сек
Каналы : 8 каналов / 6 каналов
Расположение каналов : Front: L C R, Side: L R, Wide: L R, LFE / Front: L C R, Side: L R, LFE
Частота : 48,0 КГц
Битовая глубина : 24 бит
Метод сжатия : Без потерь / Lossy
Заголовок : DTS-HD MA 7.1 @ 5234 kbps
Язык : English

Аудио #3
Идентификатор : 4
Формат : AC-3
Формат/Информация : Audio Coding 3
Расширение режима : CM (complete main)
Идентификатор кодека : A_AC3
Продолжительность : 1 ч. 30 м.
Вид битрейта : Постоянный
Битрейт : 192 Кбит/сек
Каналы : 2 канала
Расположение каналов : Front: L R
Частота : 48,0 КГц
Битовая глубина : 16 бит
Метод сжатия :
212442d26a8a2bb558d34d689c8efd4b55a3e7e1Час пик 3 / Rush Hour 3 (Бретт Рэтнер / Brett Ratner, Боевик, триллер, комедия, криминал, 2007) [BDRemux, Профессиональный (полное дублирование)] Час пик 3 / Rush Hour 3 (Бретт Рэтнер / Brett Ratner, Боевик, триллер, комедия, криминал, 2007) [BDRemux, Профессиональный (полное дублирование)] " />

Аплоадер: Админ, дата: 16-09-2011, 21:50, торрент скачан: 359 раз

Понравилась раздача? Посмотрите эти:
  • Va-банк / Runner Runner (Брэд Фурман, триллер, драма, криминал, 2013) [BDRe ...
  • Копы в юбках / The Heat [UNRATED] (Пол Фиг, комедия, криминал, боевик, дете ...
  • Лего: Звёздные войны - Награда бомбада / LEGO: Star wars - Вombad Bounty (П ...
  • Эскадрилья "Лафайет" / Flyboys (Тони Билл, Боевик, драма, мелодрама, приклю ...
  • Час Пик 3 / Rush Hour 3 (2007) [DVDRip ~700MB]
  • Запрещенный прием / Sucker Punch (Зак Снайдер, Фэнтези, 2011) [BDRemux 108 ...
  • Ковбои против пришельцев / Cowboys & Aliens(Джон Фавро, фантастика, боевик, ...
  • Другой мир: Пробуждение / Underworld: Awakening (Манс Марлинд, Бьёрн Стейн, ...
  • Аноним / Anonymous (Роланд Эммерих / Roland Emmerich, триллер, драма, 2011) ...
  • Транзит / Transit (Антонио Негрет, боевик, триллер, драма, криминал, 2011) ...
  • Диктатор / The Dictator (Ларри Чарльз, Комедия, 2012) [BD-Remux 1080p, Дубл ...
  • Сид, инструкция по выживанию / Surviving Sid (Гален Т. Чу, Карен Дишер, мул ...
  • Супер Майк / Magic Mike (Стивен Содерберг, Драма, комедия, 2012) [BD-Remux ...
  • Эволюция Борна / The Bourne Legacy (Тони Гилрой, боевик, триллер, детектив, ...
  • Петля времени / Looper (Райан Джонсон, Фантастика, боевик, триллер, кримина ...
  • Час пик 3 / Rush Hour 3 (Бретт Рэтнер / Brett Ratner,боевик, триллер, комед ...
  • Час пик 3 / Rush Hour 3 (Бретт Рэтнер, боевик, комедия, 2007) [BDRip, Профе ...
  • Час пик [Трилогия] / Rush Hour [Trilogy] (Бретт Рэтнер / Brett Ratner, Боев ...
  • Троя / Troy (Вольфганг Петерсен, Боевик, мелодрама, драма, история, 2004) [ ...
  • [ENG] Час пик 3 / Rush Hour 3 (Бретт Рэтнер / Brett Ratner, Комедия, Боевик ...
  • Информация
    Посетители, находящиеся в группе Гости, не могут оставлять комментарии к данной публикации.