вход на сайт

Имя пользователя :
Пароль :

Восстановление пароля Регистрация
Бобер / The Beaver (Джоди Фостер, драма, 2011) [BDRip 720p, Дубляж + Оригинал]
Рейтинг:
(голосов: 1)



[img]{THEME}/images/logopost.png[/img]



Бобер/ The Beaver

Год выпуска: 2011
Страна: США, ОАЭ
Производство: Summit Entertainment
Жанр:драма

Режиссёр: Джоди Фостер
В ролях:Мэл Гибсон, Джоди Фостер, Черри Джонс, Антон Ельчин, Райли Стюарт, Захари Бут, Дженнифер Лоуренс, Джефф Корбетт, Сэм Бреслин Райт

Перевод: полное дублирование
Субтитры: Русские, Английские, Французские, Испанские


Описание:Уолтер Блэк, владелец компании по производству игрушек, давно находится на грани нервного срыва. Не помогают ни антидепрессанты, ни консультации врачей и психоаналитиков, ни специализированная литература, ни алкоголь. Бизнес в упадке, семья на грани распада, репутация под угрозой. Чтобы не портить жизнь окружающим, Уолтер перебирается в гостиницу, однако справиться с одиночеством ему оказывается не под силу. В отчаянии он решает свести счеты с жизнью, но от рокового шага его удерживает… игрушка.


Тех. данные:
Качество: BDRip 720p [рип с Blu-Ray Remux 1080p]
Продолжительность:01:27:15 час.

Формат: MKV
Видео кодек: H.264
Аудио кодек: DTS, AC3
Видео: x264, 1280x536, 23.976 fps, ~4728 kbps, 0.287 bit/pix
Аудио#1:48 kHz, DTS, 3/2 (L,C,R,l,r) + LFE ch, ~1510.00 kbps avg | Дубляж

Аудио#2:2: 48 kHz, AC3, 3/2 (L,C,R,l,r) + LFE ch, ~640.00 kbps avg | Оригинал

MediaInfo: ▼

Format : Matroska
File size : 4.37 GiB
Duration : 1h 31mn
Overall bit rate : 6 877 Kbps
Movie name : Reliz by HtR
Writing application : mkvmerge v4.9.1 (Ich will) ñáîðêà îò Jul 11 2011 23:53:15
Writing library : libebml v1.2.1 + libmatroska v1.1.1
Video #1
ID : 1
Format : AVC
Format/Info : Advanced Video Codec
Format profile : [email protected]
Format settings, CABAC : Yes
Format settings, ReFrames : 6 frames
Codec ID : V_MPEG4/ISO/AVC
Duration : 1h 31mn
Bit rate : 4 728 Kbps
Width : 1 280 pixels
Height : 536 pixels
Display aspect ratio : 2.40:1
Frame rate : 23.976 fps
Color space : YUV
Chroma subsampling : 4:2:0
Bit depth : 8 bits
Scan type : Progressive
Bits/(Pixel*Frame) : 0.287
Stream size : 2.92 GiB (67%)
Writing library : x264 core 116 r2044 392e762
Encoding settings : cabac=1 / ref=6 / deblock=1:-2:-2 / analyse=0x3:0x113 / me=umh / subme=9 / psy=1 / psy_rd=1.00:0.00 / mixed_ref=1 / me_range=32 / chroma_me=1 / trellis=2 / 8x8dct=1 / cqm=0 / deadzone=21,11 / fast_pskip=1 / chroma_qp_offset=-2 / threads=6 / sliced_threads=0 / nr=0 / decimate=1 / interlaced=0 / bluray_compat=0 / constrained_intra=0 / bframes=5 / b_pyramid=2 / b_adapt=2 / b_bias=0 / direct=1 / weightb=1 / open_gop=0 / weightp=2 / keyint=240 / keyint_min=24 / scenecut=40 / intra_refresh=0 / rc_lookahead=40 / rc=2pass / mbtree=1 / bitrate=4728 / ratetol=1.0 / qcomp=0.60 / qpmin=0 / qpmax=69 / qpstep=4 / cplxblur=20.0 / qblur=0.5 / ip_ratio=1.40 / aq=1:1.00
Language : English
Audio #2
ID : 2
Format : DTS
Format/Info : Digital Theater Systems
Codec ID : A_DTS
Duration : 1h 31mn
Bit rate mode : Constant
Bit rate : 1 510 Kbps
Channel(s) : 6 channels
Channel positions : Front: L C R, Side: L R, LFE
Sampling rate : 48.0 KHz
Bit depth : 24 bits
Compression mode : Lossy
Stream size : 983 MiB (22%)
Title : Dub
Language : Russian
Audio #3
ID : 3
Format : AC-3
Format/Info : Audio Coding 3
Mode extension : CM (complete main)
Codec ID : A_AC3
Duration : 1h 31mn
Bit rate mode : Constant
Bit rate : 640 Kbps
Channel(s) : 6 channels
Channel positions : Front: L C R, Side: L R, LFE
Sampling rate : 48.0 KHz
Bit depth : 16 bits
Compression mode : Lossy
Stream size : 417 MiB (9%)
Title : Original
Language : English
Text #4
ID : 4
Format : UTF-8
Codec ID : S_TEXT/UTF8
Codec ID/Info : UTF-8 Plain Text
Title : Full
Language : Russian
Text #5
ID : 5
Format : UTF-8
Codec ID : S_TEXT/UTF8
Codec ID/Info : UTF-8 Plain Text
Title : Full
Language : English
Text #6
ID : 6
Format : UTF-8
Codec ID : S_TEXT/UTF8
Codec ID/Info : UTF-8 Plain Text
Title : Full
Language : French
Text #7
ID : 7
Format : UTF-8
Codec ID : S_TEXT/UTF8
Codec ID/Info : UTF-8 Plain Text
Title : F
8a293e3af419cabf8e719ec36ead5cce3c6581a1Бобер / The Beaver (Джоди Фостер, драма, 2011) [BDRip 720p, Дубляж + Оригинал] Бобер / The Beaver (Джоди Фостер, драма, 2011) [BDRip 720p, Дубляж + Оригинал] " />

Аплоадер: Админ, дата: 29-08-2011, 19:49, торрент скачан: 359 раз

Понравилась раздача? Посмотрите эти:
  • Суррогат / The Sessions (Бен Луин, драма, 2012) [BDRip 720p, Профессиональн ...
  • Зубная фея 2 / Tooth Fairy 2 (Алекс Замм, комедия, семейный, 2012) [BDRip 7 ...
  • Бобер / The Beaver (Джоди Фостер, Драма, 2011) [BDRip - AVC, Дубляж]
  • [ENG] Бобер / The Beaver (Джоди Фостер,драма,2011) [DVDRip, Оригинал (англи ...
  • Бобер / The Beaver (Джоди Фостер,драма,2011) [HDRip-AVC,Дубляж]
  • Хранитель времени / Hugo (Мартин Скорсезе, Драма, 2011) [BDRip-AVC, Професс ...
  • Персонаж / Stranger Than Fiction (Марк Форстер, Комедия, драма, фантастика, ...
  • Бедная богатая девочка / Young Adult (Джейсон Райтман, драма, комедия, 2011 ...
  • Исходный код / Source Code (Дункан Джонс, фантастика, боевик, триллер, 2011 ...
  • Дети шпионов 4D / Spy Kids: All the Time in the World in 4D (Роберт Родриге ...
  • Чаббчаббы спасают Рождество / The Chubbchubbs Save Xmas (Коуди Камерон, мул ...
  • Человек, который изменил всё / Moneyball (Беннетт Миллер, драма, биография, ...
  • Дом грёз / Dream House (Джим Шеридан, триллер, драма, детектив, 2011) [BDRi ...
  • Паранормальное явление 3 / Paranormal Activity 3 [Theatrical Cut] (Генри Дж ...
  • Рыжий пес / Red Dog (Крив Стендерс, драма, комедия, семейный, 2011) [BDRip ...
  • Домашняя работа / The Art of Getting By (Гэвин Вьесен, драма, мелодрама, 20 ...
  • Проект X: Дорвались / Project X (Нима Нуризаде, комедия, 2012) [BDRip 720p, ...
  • Хижина в лесу / The Cabin in the Woods (Дрю Годдард, Ужасы, фантастика, три ...
  • Супер Майк / Magic Mike (Стивен Содерберг, Драма, комедия, 2012) [BDRip 720 ...
  • Mylene Farmer / Du Temps [2011, Pop, HDTVRip]
  • Бобер / The Beaver (Джоди Фостер,драма,2011) [HDRip,Дубляж] [Лицензия]
  • Бобер / The Beaver (Джоди Фостер,драма,2011) [320x176] [HDRip,Дубляж] [Лице ...
  • Бобёр / The Beaver (Джоди Фостер, Драма , 2011) [BDRip-AVC, Профессиональны ...
  • Бобер / The Beaver (Джоди Фостер,драма,2011) [HDRip,Дублированный [лицензия ...
  • Бобер / The Beaver (Джоди Фостер,драма,2011) [HDRip, Дублированное [лицензи ...
  • Информация
    Посетители, находящиеся в группе Гости, не могут оставлять комментарии к данной публикации.