вход на сайт

Имя пользователя :
Пароль :

Восстановление пароля Регистрация
Запрещенный прием / Sucker Punch (Зак Снайдер, Фэнтези, 2011) [BDRemux 1080р, Дублированный][Theatrical Cut]
Рейтинг:
(голосов: 1)



[img]{THEME}/images/logopost.png[/img]



Запрещенный прием / Sucker Punch

Год выпуска: 2011
Страна: США, Канада.
Производство: Cruel & Unusual Films, Legendary Pictures, Lennox House Films, Warner Bros. Pictures
Жанр: Фэнтези, боевик, триллер, приключения

Режиссёр: Зак Снайдер / Zack Snyder
В ролях: Эмили Браунинг, Эбби Корниш, Джена Мэлоун, Ванесса Энн Хадженс, Джеми Чунг, Карла Гуджино, Оскар Айзек, Джон Хэмм, Скотт Гленн, Ричард Цетрон

Перевод: Дублированный
Субтитры: русские(forced|full), английские

Описание: Действие развернется в 1950 году. Молодую девушку по настоянию ее злодейского отчима определяют в больницу для душевнобольных, где спустя пять дней главную героиню лоботомируют. Чтобы оградиться от боли, она выдумывает сказочный мир, где и начинает планировать свой побег — для этого ей нужно раздобыть пять предметов.

IMDB: 6.30 (55 856)
КиноПоиск: 6.694 (17 728)

"MediaInfo" ▼
Общее
Уникальный идентификатор : 177015228457522539503814168167292987292 (0x852BE495BE13A164991859C78149E79C)
Полное имя : H:HD VideoSucker.Punch.Theatrical.Cut.2011.1080p.Remux.Rus.Ukr.Eng.mkv
Формат : Matroska
Версия формата : Version 2
Размер файла : 21,8 Гбайт
Продолжительность : 1 ч. 49 м.
Общий поток : 28,4 Мбит/сек
Дата кодирования : UTC 2011-07-23 06:27:26
Программа кодирования : mkvmerge v4.4.0 (Die Wiederkehr) сборка от Oct 31 2010 21:52:48
Библиотека кодирования : libebml v1.0.0 + libmatroska v1.0.0

Видео
Идентификатор : 1
Формат : AVC
Формат/Информация : Advanced Video Codec
Профиль формата : [email protected]
Параметр CABAC формата : Да
Параметр ReFrames формата : 2 кадра
Параметры GOP формата : M=1, N=20
Режим смешивания : Container [email protected]
Идентификатор кодека : V_MPEG4/ISO/AVC
Продолжительность : 1 ч. 49 м.
Вид битрейта : Переменный
Битрейт : 25,4 Мбит/сек
Ширина : 1920 пикс.
Высота : 1080 пикс.
Соотношение сторон : 16:9
Частота кадров : 23,976 кадр/сек
Цветовое пространство : YUV
Подвыборка цветности : 4:2:0
Битовая глубина : 8 бит
Тип развёртки : Прогрессивная
Бит/(Пиксели*Кадры) : 0.512
Размер потока : 19,5 Гбайт (90%)

Аудио #1
Идентификатор : 2
Формат : AC-3
Формат/Информация : Audio Coding 3
Расширение режима : CM (complete main)
Идентификатор кодека : A_AC3
Продолжительность : 1 ч. 49 м.
Вид битрейта : Постоянный
Битрейт : 640 Кбит/сек
Каналы : 6 каналов
Расположение каналов : Front: L C R, Side: L R, LFE
Частота : 48,0 КГц
Битовая глубина : 16 бит
Метод сжатия : С потерями
Размер потока : 502 Мбайт (2%)
Заголовок : DD5.1 (640 kbps) (Дубляж)
Язык : Russian

Аудио #2
Идентификатор : 3
Формат : AC-3
Формат/Информация : Audio Coding 3
Профиль формата : Dolby Digital
Расширение режима : CM (complete main)
Идентификатор кодека : A_AC3
Продолжительность : 1 ч. 49 м.
Вид битрейта : Постоянный
Битрейт : 192 Кбит/сек
Каналы : 2 канала
Расположение каналов : Front: L R
Частота : 48,0 КГц
Битовая глубина : 16 бит
Метод сжатия : С потерями
Размер потока : 151 Мбайт (1%)
Заголовок : DD5.1 (640 kbps) (Дубляж)
Язык : Ukrainian

Аудио #3
Идентификатор : 4
Формат : DTS
Формат/Информация : Digital Theater Systems
Профиль формата : MA / Core
Идентификатор кодека : A_DTS
Продолжительность : 1 ч. 49 м.
Вид битрейта : Переменный
Битрейт : 1561 Кбит/сек / 1510 Кбит/сек
Каналы : 6 каналов
Расположение каналов : Front: L C R, Side: L R, LFE
Частота : 48,0 КГц
Битовая глубина : 16 бит
Метод сжатия : Без потерь / Lossy
Заголовок : DTS-HD MA 5.1
Язык : English


Качество: BDRemux 1080р
Продолжительность: 1:49:45

Формат: MKV
Видео кодек: AVC
Аудио кодек: DTS, AC3
Видео: MPEG-4 AVC Video, 25550 kbps, 1920х1080p (16:9), 23.976 fps, 0.512 bit/pix
Аудио #1: AC3 5.1 / 48 kHz / 640 kbps / 16-bit |Дубляж, Blu-ray CEE RUS|
Аудио #1: AC3 5.1 / 48 kHz / 640 kbps / 16-bit |Дубляж, Blu-ray CEE UKR|
Аудио #2: DTS
04ad4cd2b5825e36731de5bfe8ddf7f0e21bd040Запрещенный прием / Sucker Punch (Зак Снайдер, Фэнтези, 2011) [BDRemux 1080р, Дублированный][Theatrical Cut] Запрещенный прием / Sucker Punch (Зак Снайдер, Фэнтези, 2011) [BDRemux 1080р, Дублированный][Theatrical Cut] " />

Аплоадер: Админ, дата: 2-08-2011, 13:13, торрент скачан: 359 раз

Понравилась раздача? Посмотрите эти:
  • Географ глобус пропил (Александр Велединский, Драма, 2013) [BDRemux 1080p , ...
  • Va-банк / Runner Runner (Брэд Фурман, триллер, драма, криминал, 2013) [BDRe ...
  • Копы в юбках / The Heat [UNRATED] (Пол Фиг, комедия, криминал, боевик, дете ...
  • Поймай толстуху, если сможешь [Театральная версия] / Identity Thief [Theatr ...
  • G.I. Joe: Бросок кобры 2 [Театральная версия] / G.I. Joe: Retaliation [Thea ...
  • Лего: Звёздные войны - Награда бомбада / LEGO: Star wars - Вombad Bounty (П ...
  • Эскадрилья "Лафайет" / Flyboys (Тони Билл, Боевик, драма, мелодрама, приклю ...
  • Запрещенный прием / Sucker Punch ( Зак Снайдер, фэнтези, боевик, триллер, п ...
  • Запрещенный прием / Sucker Punch (Зак Снайдер, фэнтези, боевик, триллер, пр ...
  • Запрещенный прием / Sucker Punch (Зак Снайдер, фэнтези, боевик, триллер, пр ...
  • Запрещенный прием / Sucker Punch (Зак Снайдер, фэнтези, боевик, триллер, пр ...
  • Час пик 3 / Rush Hour 3 (Бретт Рэтнер / Brett Ratner, Боевик, триллер, коме ...
  • Другой мир: Пробуждение / Underworld: Awakening (Манс Марлинд, Бьёрн Стейн, ...
  • Аноним / Anonymous (Роланд Эммерих / Roland Emmerich, триллер, драма, 2011) ...
  • Хищники / Predators (Нимрод Антал, Фантастика, Боевик, Триллер, Приключения ...
  • Диктатор / The Dictator (Ларри Чарльз, Комедия, 2012) [BD-Remux 1080p, Дубл ...
  • Счастливчик / The Lucky One (Скотт Хикс, Драма, мелодрама, 2012) [BD-Remux ...
  • Сид, инструкция по выживанию / Surviving Sid (Гален Т. Чу, Карен Дишер, мул ...
  • Супер Майк / Magic Mike (Стивен Содерберг, Драма, комедия, 2012) [BD-Remux ...
  • Папа-Досвидос [Театральная версия] / Thats My Boy [Theatrical Cut] (Шон Анд ...
  • Эволюция Борна / The Bourne Legacy (Тони Гилрой, боевик, триллер, детектив, ...
  • Запрещенный прием [Расширенная версия ] / Sucker Punch [Theatrical Cut] (За ...
  • Запрещенный прием / Sucker Punch [Театральная версия / Theatrical Cut] (Зак ...
  • Запрещенный прием / Sucker Punch [Театральная версия / Theatrical Cut] (Зак ...
  • Запрещенный прием (Расширенная версия) / Sucker Punch (Extended Cut) (Зак С ...
  • Информация
    Посетители, находящиеся в группе Гости, не могут оставлять комментарии к данной публикации.