вход на сайт

Имя пользователя :
Пароль :

Восстановление пароля Регистрация
Исходный код / Source Code (Дункан Джонс, фантастика, боевик, триллер, 2011) [BDRip 720p, Дублированный]
Рейтинг:
(голосов: 1)



[img]{THEME}/images/logopost.png[/img]



Исходный код / Source Code

Год выпуска: 2011
Страна: США, Франция
Производство: Mark Gordon Company
Жанр: фантастика, боевик, триллер

Режиссёр: Дункан Джонс
В ролях: Джейк Джилленхол, Мишель Монахэн, Вера Фармига, Джеффри Райт, Майкл Арден, Кэс Анвар, Расселл Питерс, Бренд Скафорд, Крэйг Томас, Гордон Мастен

Перевод: Профессиональный (полное дублирование) НТВ+
Субтитры: русские (full,CDH voronine),английские

Описание: Герой фильма — солдат, который оказывается в теле некоего человека, и вынужден постоянно переживать чудовищный взрыв поезда, пока не поймёт, кто его устроил.




Качество: BDRip 720p [CtrlHD]
Продолжительность: 01:33:12

Формат: mkv
Видео кодек: AVC
Аудио кодек: AC3, DTS
Видео: 1280x720 (16:9), 6 499 Kbps, 23.976 fps, 0.294 bit/pix
Аудио1: Russian: 48 kHz, AC3, 3/2 (L,C,R,l,r) + LFE ch, ~448.00 kbps avg
Аудио2: English: 48 kHz, DTS, 3/2 (L,C,R,l,r) + LFE ch, ~1536.00 kbps avg

"MediaInfo" ▼
General
Unique ID : 236788558762803743592622585488792998576 (0xB223D14CFC5496ECB8ADABBA6271D2B0)
Complete name : D:DownloadsВидеоРипыSource.Code.2011.720p.BluRay.DTS.x264-CtrlHD.mkv
Format : Matroska
File size : 5.51 GiB
Duration : 1h 33mn
Overall bit rate : 8 456 Kbps
Movie name : -Talian-
Encoded date : UTC 2011-07-27 17:47:01
Writing application : mkvmerge v3.3.0 (Language) сборка от May 14 2010 17:11:50
Writing library : libebml v0.8.0 + libmatroska v0.9.0
Cover : Yes / Yes / Yes / Yes

Video
ID : 1
Format : AVC
Format/Info : Advanced Video Codec
Format profile : [email protected]
Format settings, CABAC : Yes
Format settings, ReFrames : 9 frames
Codec ID : V_MPEG4/ISO/AVC
Duration : 1h 33mn
Bit rate : 6 499 Kbps
Width : 1 280 pixels
Height : 720 pixels
Display aspect ratio : 16:9
Frame rate : 23.976 fps
Color space : YUV
Chroma subsampling : 4:2:0
Bit depth : 8 bits
Scan type : Progressive
Bits/(Pixel*Frame) : 0.294
Stream size : 4.12 GiB (75%)
Title : Source Code 2011 720p BluRay DTS x264-CtrlHD
Writing library : x264 core 116 r2019 9cc407d
Encoding settings : cabac=1 / ref=9 / deblock=1:-2:-2 / analyse=0x3:0x133 / me=umh / subme=10 / psy=1 / psy_rd=1.00:0.00 / mixed_ref=1 / me_range=32 / chroma_me=1 / trellis=2 / 8x8dct=1 / cqm=0 / deadzone=21,11 / fast_pskip=1 / chroma_qp_offset=-2 / threads=12 / sliced_threads=0 / nr=0 / decimate=1 / interlaced=0 / bluray_compat=0 / constrained_intra=0 / bframes=3 / b_pyramid=2 / b_adapt=2 / b_bias=0 / direct=3 / weightb=1 / open_gop=1 / weightp=2 / keyint=250 / keyint_min=23 / scenecut=40 / intra_refresh=0 / rc_lookahead=80 / rc=2pass / mbtree=1 / bitrate=6499 / ratetol=1.0 / qcomp=0.60 / qpmin=0 / qpmax=69 / qpstep=4 / cplxblur=20.0 / qblur=0.5 / ip_ratio=1.40 / aq=1:1.00
Language : English

Audio #1
ID : 2
Format : AC-3
Format/Info : Audio Coding 3
Mode extension : CM (complete main)
Codec ID : A_AC3
Duration : 1h 33mn
Bit rate mode : Constant
Bit rate : 448 Kbps
Channel(s) : 6 channels
Channel positions : Front: L C R, Side: L R, LFE
Sampling rate : 48.0 KHz
Bit depth : 16 bits
Compression mode : Lossy
Stream size : 299 MiB (5%)
Title : DUB
Language : Russian

Audio #2
ID : 3
Format : DTS
Format/Info : Digital Theater Systems
Codec ID : A_DTS
Duration : 1h 33mn
Bit rate mode : Constant
Bit rate : 1 510 Kbps
Channel(s) : 6 channels
Channel positions : Front: L C R, Side: L R, LFE
Sampling rate : 48.0 KHz
Bit depth : 24 bits
Compression mode : Lossy
Delay relative to video : 11ms
Stream size : 1 007 MiB (18%)
Title : Original
Language : English

Text #1
ID : 4
Format : UTF-8
Codec ID : S_TEXT/UTF8
Codec ID/Info : UTF-8 Plain Text
Title : Sub-full voronine
Language : Russian

Text #2
ID : 5
Format : UTF-8
Codec ID : S_TEXT/UTF8
Codec ID/Info : UTF-8 Plain Text
Title : Sub-SDH voronine
Language : Russian

Text #3
ID : 6
Format :
1d767232966b03c9f7e87c93e5a1ab4dfc14040dИсходный код / Source Code (Дункан Джонс, фантастика, боевик, триллер, 2011) [BDRip 720p, Дублированный] Исходный код / Source Code (Дункан Джонс, фантастика, боевик, триллер, 2011) [BDRip 720p, Дублированный] " />

Аплоадер: Админ, дата: 28-07-2011, 16:24, торрент скачан: 359 раз

Понравилась раздача? Посмотрите эти:
  • Цель Номер Один / Zero Dark Thirty (Кэтрин Бигелоу, Триллер, драма, история ...
  • Суррогат / The Sessions (Бен Луин, драма, 2012) [BDRip 720p, Профессиональн ...
  • Зубная фея 2 / Tooth Fairy 2 (Алекс Замм, комедия, семейный, 2012) [BDRip 7 ...
  • Убить по расписанию / Ticking Clock (Эрни Барбараш, фантастика, боевик, три ...
  • Военные Игры / War Games: At The End Of The Day ( Козимо Алема, триллер, у ...
  • Исходный код / Source Code (Дункан Джонс, фантастика, боевик, триллер, драм ...
  • Исходный код / Source Code (Бен Рипли, фантастика, боевик, триллер, драма, ...
  • Персонаж / Stranger Than Fiction (Марк Форстер, Комедия, драма, фантастика, ...
  • Бедная богатая девочка / Young Adult (Джейсон Райтман, драма, комедия, 2011 ...
  • Исходный код / Source Code (Дункан Джонс, Фантастика, боевик, триллер, драм ...
  • Геркулес / Hercules (Рон Клементс, Джон Маскер, Мультфильм, 1997 г.)[HDTVRi ...
  • Бобер / The Beaver (Джоди Фостер, драма, 2011) [BDRip 720p, Дубляж + Оригин ...
  • Дети шпионов 4D / Spy Kids: All the Time in the World in 4D (Роберт Родриге ...
  • Конан-варвар / Conan the Barbarian (Маркус Ниспел, фэнтези, боевик, приключ ...
  • Ларри Краун / Larry Crowne (Том Хэнкс, драма, мелодрама, комедия, 2011) [BD ...
  • Чаббчаббы спасают Рождество / The Chubbchubbs Save Xmas (Коуди Камерон, мул ...
  • Профессионал / Killer Elite (Гэри МакКендри, Боевик, Триллер, Криминал, 201 ...
  • Дом грёз / Dream House (Джим Шеридан, триллер, драма, детектив, 2011) [BDRi ...
  • Паранормальное явление 3 / Paranormal Activity 3 [Theatrical Cut] (Генри Дж ...
  • Похищенная / A Lonely Place to Die (Джулиан Джилби, триллер, криминал, прик ...
  • Код Доступа «Кейптаун» / Safe House (Дэниэл Эспиноза, боевик, триллер, крим ...
  • Ворон / The Raven (Джеймс МакТиг, Триллер, детектив, 2012) [BDRip 720p, Дуб ...
  • Хижина в лесу / The Cabin in the Woods (Дрю Годдард, Ужасы, фантастика, три ...
  • Исходный код / Source Code (Дункан Джонс, фантастика, боевик, триллер, драм ...
  • Исходный код / Source Code (Дункан Джонс, Фантастика, боевик, триллер, драм ...
  • Информация
    Посетители, находящиеся в группе Гости, не могут оставлять комментарии к данной публикации.