вход на сайт

Имя пользователя :
Пароль :

Восстановление пароля Регистрация
Плохие парни 2 / Bad Boys II (Майкл Бэй, Боевик, триллер, комедия, криминал, 2003) [HDTVRip 720p, Дублированный]
Рейтинг:
(голосов: 1)



[img]{THEME}/images/logopost.png[/img]



Плохие парни 2 / Bad Boys II

Год выпуска: 2003
Страна: США
Производство: Paramount Picture
Жанр: Боевик, триллер, комедия, криминал

Режиссёр: Майкл Бэй / Michael Bay
В ролях: Мартин Лоуренс, Уилл Смит, Жорди Молья, Гэбриэл Юнион, Петер Стормаре, Тереза Рэндл, Джо Пантольяно, Майкл Шеннон, Джон Седа, Юл Васкез

Перевод: Дублированный, Закадровый (одноголосый, двухголосый, многоголосый), Любительский (одноголосый) и т. д.
Субтитры: Русские

Описание: Детективы отдела по борьбе с незаконным оборотом наркотиков Майк Лоури и Маркус Бэрнетт получают задание расследовать схему доставки нового наркотика в Майами. Это расследование выводит их на искусный заговор, сплетенный местным наркобароном с целью поставить под контроль всю торговлю наркотиками в городе.

По чистой случайности про эти амбициозные планы узнают и остальные игроки нелегального рынка, в результате чего вспыхивает настоящая война. Несмотря на это, Майку и Маркусу удается успешно справляться с натиском наркомафии и сажать дилеров за решетку. Но ситуация начинает выходить из-под контроля, когда Майк не на шутку увлекается сестрой Маркуса, Сидни.
Торжество закона висит на волоске — ведь вместо выполнения спецзаданий детективы начинают выяснять отношения между собой…Качество: HDTVRip 720p
Продолжительность: 02:26:41

Формат: MKV
Видео кодек: H.264
Аудио кодек: AC3, DTS
Видео: x264, L4.1, DXVA, 1280x534, 23.976, OAR 7450 Kbps
Аудио 1: Русский AC3 5.1 48kHz 448kbps [Дубляж - R5]
Аудио 2: Русский DTS 5.1 48kHz 768kbps [Автроский одноголосый - А. Гаврилов]
Аудио 3: Английский DTS 5.1 48kHz 768kbps [Оригинал]

"MediaInfo" ▼
General
Complete name : F:ЗакачкиBad.Boys.II.2003.OAR.720p.HDTV.DTS.x264.2xRus.Eng.mkv
Format : Matroska
File size : 9.32 GiB
Duration : 2h 26mn
Overall bit rate : 9 096 Kbps
Encoded date : UTC 2011-01-12 17:47:10
Writing application : mkvmerge v4.2.0 (No Talking) сборка от Jul 28 2010 18:38:23
Writing library : libebml v1.0.0 + libmatroska v1.0.0

Video
ID : 1
Format : AVC
Format/Info : Advanced Video Codec
Format profile : [email protected]
Format settings, CABAC : Yes
Format settings, ReFrames : 9 frames
Muxing mode : Container [email protected]
Codec ID : V_MPEG4/ISO/AVC
Duration : 2h 26mn
Bit rate : 6 958 Kbps
Nominal bit rate : 7 450 Kbps
Width : 1 280 pixels
Height : 534 pixels
Display aspect ratio : 2.35:1
Frame rate : 23.976 fps
Original frame rate : 25.000 fps
Color space : YUV
Chroma subsampling : 4:2:0
Bit depth : 8 bits
Scan type : Progressive
Bits/(Pixel*Frame) : 0.425
Stream size : 7.13 GiB (76%)
Writing library : x264 core 102 r1666 d058f37
Encoding settings : cabac=1 / ref=9 / deblock=1:-3:-3 / analyse=0x3:0x133 / me=umh / subme=9 / psy=1 / psy_rd=0.95:0.00 / mixed_ref=1 / me_range=40 / chroma_me=1 / trellis=2 / 8x8dct=1 / cqm=0 / deadzone=21,11 / fast_pskip=0 / chroma_qp_offset=-4 / threads=12 / sliced_threads=0 / nr=0 / decimate=1 / interlaced=0 / constrained_intra=0 / bframes=7 / b_pyramid=2 / b_adapt=2 / b_bias=0 / direct=3 / weightb=1 / open_gop=0 / weightp=2 / keyint=250 / keyint_min=25 / scenecut=40 / intra_refresh=0 / rc_lookahead=40 / rc=2pass / mbtree=0 / bitrate=7450 / ratetol=1.0 / qcomp=0.60 / qpmin=10 / qpmax=51 / qpstep=4 / cplxblur=20.0 / qblur=0.5 / vbv_maxrate=50000 / vbv_bufsize=50000 / ip_ratio=1.40 / pb_ratio=1.30 / aq=1:0.80 / nal_hrd=none

Audio #1
ID : 2
Format : AC-3
Format/Info : Audio Coding 3
Mode extension : CM (complete main)
Codec ID : A_AC3
Duration : 2h 26mn
Bit rate mode : Constant
Bit rate : 448 Kbps
Channel(s) : 6 channels
Channel positions : Front: L C R, Side: L R, LFE
Sampling rate : 48.0 KHz
Bit depth : 16 bits
Video delay : 4ms
Stream size : 470 MiB (5%)
Title : AC3 5.1 448kbps (Dub)
Language : Russian

Audio #2
ID : 3
Format : DTS
Format/Info : Digital Theater Systems
Codec ID : A_DTS
Duration : 2h 26mn
Bit rate mode : Constant
Bit rate : 755 Kbps
Channel(s) : 6 channels
Channel positions : Front: L C R, Side: L R, LFE
Sa
929d2e1ce8b61e0813202d4338998f9835fe27bcПлохие парни 2 / Bad Boys II (Майкл Бэй, Боевик, триллер, комедия, криминал, 2003) [HDTVRip 720p, Дублированный] Плохие парни 2 / Bad Boys II (Майкл Бэй, Боевик, триллер, комедия, криминал, 2003) [HDTVRip 720p, Дублированный] " />

Аплоадер: Админ, дата: 20-07-2011, 18:42, торрент скачан: 359 раз

Понравилась раздача? Посмотрите эти:
  • Плохие парни 2 / Bad Boys II (,Майкл Бэй Боевик, триллер, комедия, криминал ...
  • Паркер / Parker (Тейлор Хэкфорд, Боевик, триллер, криминал, 2013) [BDRip 7 ...
  • Кровью и потом: Анаболики / Pain & Gain (Майкл Бэй, криминал, комедия, трил ...
  • UFC The Ultimate 100 Knockouts - PPV [MMA,2013, HDTVRip 720p]
  • Водитель / The Driver (Уолтер Хилл, Боевик, триллер, драма, криминал, 1978) ...
  • Убить по расписанию / Ticking Clock (Эрни Барбараш, фантастика, боевик, три ...
  • Стрелок / Shooter (Антуан Фукуа, боевик, триллер, криминал, детектив, 2007) ...
  • Плохие парни 2 / Bad boys 2 (Майкл Бей, боевик, триллер, комедия, криминал, ...
  • Бомж с дробовиком / Hobo with a Shotgun (Джейсон Айзенер / Jason Eisener, С ...
  • Исходный код / Source Code (Дункан Джонс, фантастика, боевик, триллер, 2011 ...
  • Успеть за 30 минут / 30 Minutes or Less (Рубен Фляйшер, боевик,комедия,крим ...
  • Далеко-далеко / Far and Away (Рон Ховард, драма, мелодрама, приключения, ве ...
  • Патруль / End of Watch (Дэвид Эйр, Триллер, драма, криминал, 2012) [BDRip 7 ...
  • Mylene Farmer / Du Temps [2011, Pop, HDTVRip]
  • Mylene Farmer / Bleu Noir [2011, Pop, HDTVRip]
  • Плохие парни 2 / Bad boys 2 (Майкл Бей, боевик, триллер, комедия, криминал, ...
  • Плохие парни 2 / Bad Boys 2 ( Майкл Бэй / боевик, триллер, комедия, кримина ...
  • Плохие парни: Дилогия / Bad Boys: Dilogy (Майкл Бэй, Боевик, триллер, комед ...
  • Плохие парни 2 / Bad Boys II (Майкл Бэй, Боевик, триллер, комедия, криминал ...
  • Плохие парни 2 / Bad Boys II (Майкл Бэй, Боевик, триллер, комедия, криминал ...
  • Информация
    Посетители, находящиеся в группе Гости, не могут оставлять комментарии к данной публикации.