вход на сайт

Имя пользователя :
Пароль :

Восстановление пароля Регистрация
Немыслимое / Unthinkable (Грегор Джордан, триллер, драма, 2009) [BDRip 720p, Профессиональный (многоголосый, закадровый) + оригинал]
Рейтинг:
(голосов: 1)



[img]{THEME}/images/logopost.png[/img]



Немыслимое / Unthinkable

Слоган "На войне без правил законов нет"

Год выпуска: 2009
Страна: США
Производство: Sidney Kimmel Entertainment / Senator Entertainment Co
Жанр: триллер, драма

Режиссёр: Грегор Джордан
В ролях: Сэмюэл Л. Джексон, Майкл Шин, Брэндон Рут, Кэрри-Энн Мосс, Стивен Рут, Джил Беллоуз, Некар Задеган, Мартин Донован, Яра Шахиди, Саша Ройз

Перевод: Профессиональный (многоголосый, закадровый) + оригинал
Субтитры: отсутствуют

Описание:
Что будет, если военнослужащий американской армии примет ислам и заложит три ядерных заряда в крупнейших городах Америки? Как заставить его выдать места закладки до подрыва? Что делать, если террорист готов ко всему, что с ним могут сделать по закону?



Доп. информация:

Рейтинг MPAA: ▼Рейтинг R - Детям до 17 лет обязательно присутствие родителей
Премьера: ▼премьера (мир) 5 ноября 2009
премьера (РФ) 7 октября 2010, «Top Film Distribution»
релиз на DVD 28 октября 2010, «Новый Диск», «New Dream media»

Тех. данные:
Качество: BDRip 720р
Продолжительность: 01:27:28 час.

Формат: MKV
Видео кодек: x264
Аудио кодек: AС3, DTS
Видео: 1280x690 (1,855), 23.976 fps, Advanced Video Codec ~4922 kbps avg, 0.232 bit/pixel
Аудио: 48 kHz, Audio Coding 3, 6 ch (Front: L C R, Side: L R, LFE), ~448.00 kbps avg - MVO
Аудио: 48 kHz, Digital Theater Systems, 6 ch (Front: L C R, Side: L R, LFE), ~1510.00 kbps avg - Оригинал
MediaInfo: ▼TextОбщее
Уникальный идентификатор : 220105831254936769899652434340802173604 (0xA596D7549C6FF101A6DA575CAD939AA4)
Полное имя : D:
emyslimoe.2009.bdrip720p..mkv
Формат : Matroska
Размер файла : 4,67 Гбайт
Продолжительность : 1 ч. 37 м.
Общий поток : 6881 Кбит/сек
Название фильма : =kinozal.tv-HD=
Дата кодирования : UTC 2010-05-31 18:27:43
Программа кодирования : mkvmerge v3.1.0 (Happy up here) built on Jan 19 2010 12:09:24
Библиотека кодирования : libebml v0.7.9 + libmatroska v0.8.1

Видео
Идентификатор : 1
Формат : AVC
Формат/Информация : Advanced Video Codec
Профиль формата : [email protected]
Параметр CABAC формата : Да
Параметр ReFrames формата : 8 кадров
Идентификатор кодека : V_MPEG4/ISO/AVC
Продолжительность : 1 ч. 37 м.
Битрейт : 4922 Кбит/сек
Ширина : 1280 пикс.
Высота : 690 пикс.
Соотношение сторон : 1,855
Частота кадров : 23,976 кадр/сек
Цветовое пространство : YUV
Подвыборка цветности : 4:2:0
Битовая глубина : 8 бит
Тип развёртки : Прогрессивная
Бит/(Пиксели*Кадры) : 0.232
Размер потока : 3,25 Гбайт (70%)
Заголовок : Unthinkable.2010
Библиотека кодирования : x264 core 84 r1416 fcf70c2
Настройки программы : cabac=1 / ref=8 / deblock=1:-3:-3 / analyse=0x3:0x113 / me=umh / subme=9 / psy=1 / psy_rd=1.1:0.1 / mixed_ref=1 / me_range=32 / chroma_me=1 / trellis=2 / 8x8dct=1 / cqm=2 / deadzone=21,11 / fast_pskip=0 / chroma_qp_offset=-2 / threads=6 / sliced_threads=0 / nr=0 / decimate=1 / mbaff=0 / constrained_intra=0 / bframes=3 / b_pyramid=2 / b_adapt=2 / b_bias=0 / direct=3 / wpredb=1 / wpredp=2 / keyint=250 / keyint_min=25 / scenecut=40 / intra_refresh=0 / rc_lookahead=40 / rc=2pass / mbtree=1 / bitrate=4922 / ratetol=1.0 / qcomp=0.60 / qpmin=10 / qpmax=51 / qpstep=4 / cplxblur=20.0 / qblur=0.5 / vbv_maxrate=50000 / vbv_bufsize=50000 / ip_ratio=1.40 / aq=1:0.80
Язык : English

Аудио #1
Идентификатор : 2
Формат : AC-3
Формат/Информация : Audio Coding 3
Расширение режима : CM (complete main)
Идентификатор кодека : A_AC3
Продолжительность : 1 ч. 37 м.
Вид битрейта : Постоянный
Битрейт : 448 Кбит/сек
Каналы : 6 каналов
Расположение каналов : Front: L C R, Side: L R, LFE
Частота : 48,0 КГц
Битовая глубина : 16 бит
Метод сжатия : С потерями
Размер потока : 311 Мбайт (7%)
Язык : Russian

Аудио #2
Идентификатор : 3
Формат : DTS
Формат/Информация : Digital Theater Systems
Идентификатор кодека : A_DTS
Продолжительность : 1 ч. 37 м.
Вид битрейта : Постоянный
Битрейт : 1510 Кбит/сек
Каналы : 6 каналов
Расположение каналов : Front: L C
b8192fc29a84e95635827f656d1f7a48bdf332e2Немыслимое / Unthinkable (Грегор Джордан, триллер, драма, 2009) [BDRip 720p, Профессиональный (многоголосый, закадровый) + оригинал] Немыслимое / Unthinkable (Грегор Джордан, триллер, драма, 2009) [BDRip 720p, Профессиональный (многоголосый, закадровый) + оригинал] " />

Аплоадер: Админ, дата: 28-06-2011, 01:20, торрент скачан: 359 раз

Понравилась раздача? Посмотрите эти:
  • Мэрайа Мунди и шкатулка Мидаса / The Adventurer: The Curse of the Midas Box ...
  • Джобс: Империя соблазна / jOBS (Джошуа Майкл Штерн, драма, биография, 2013) ...
  • Погнали! / Getaway (Кортни Соломон, боевик, криминал, 2013) [BDRip 1080p, П ...
  • Больше чем мёд / More Than Honey (документальный, 2012) [BDRip 720p, Профес ...
  • Немыслимое / Unthinkable (Грегор Джордан, Триллер, драма, 2009) [BDRip-AVC, ...
  • Призраки / Ghosted (Крэйг Вивейрос, Триллер, драма, 2011) [BDRip-AVC, Профе ...
  • Ну ты и придурок! / You Stupid Man (Брайан Барнс, мелодрама, комедия, 2002) ...
  • Суррогат / The Sessions (Бен Луин, Драма, 2012) [BDRip-AVC, Профессиональны ...
  • Банда Келли / Ned Kelly (Грегор Джордан, Боевик, Криминал, Приключения, Вес ...
  • Ошибка телохранителя / The Girl from the Naked Eye (Дэвид Рен, боевик, трил ...
  • Немыслимое / Unthinkable (Грегор Джордан, триллер, драма, 2009) [HDRip - AV ...
  • Немыслимое / Unthinkable (Грегор Джордан , триллер, драма, 2010) [BDRip-AVC ...
  • Правдивая история Кота в сапогах / La véritable histoire du Chat Botté (Риш ...
  • Жестокие игры / Cruel Intentions (Роджер Камбл, мелодрама, драма, 1999) [BD ...
  • Последняя любовь на Земле / Perfect Sense (Дэвид МакКензи, фантастика, драм ...
  • Бессонная ночь / Nuit blanche (Фредерик Жарден, Боевик, 2011) [BDRip 720p, ...
  • Бульвар спасения / Salvation Boulevard (Джордж Рэтлифф, Боевик, триллер, др ...
  • Павшая империя / Hirokin (Алехо Мо-Сан, фантастика, боевик, драма, приключе ...
  • Немыслимое / Unthinkable (Грегор Джордан, триллер, драма, 2010) [HDRip,Проф ...
  • Немыслимое [Расширенная версия] / Unthinkable [Extended Cut] (Грегор Джорда ...
  • Информация
    Посетители, находящиеся в группе Гости, не могут оставлять комментарии к данной публикации.