вход на сайт

Имя пользователя :
Пароль :

Восстановление пароля Регистрация
Бомж с дробовиком / Hobo with a Shotgun (Джейсон Айзенер / Jason Eisener, США, Канада, боевик, триллер, криминал, 2011) [HDTVRip 720p, AVO (Котов) + DVO + Original (Eng) + Sub (2xRus, Eng)]
Рейтинг:
(голосов: 1)



[img]{THEME}/images/logopost.png[/img]



Бомж с дробовиком / Hobo with a Shotgun

Год выпуска: 2011
Страна: США, Канада
Жанр: Боевик, триллер, криминал, приключения

Перевод: Авторский (одноголосый, закадровый)(Вячеслав Котов), Любительский (двухголосый, закадровый) + Оригинальная аудиодорожка(английский)
Субтитры: русские (без мата - Plandercozeron), русские (с матом), английские

Режиссер: Джейсон Айзенер / Jason Eisener
В ролях: Рутгер Хауэр, Грегори Смит, Робб Уэллс, Молли Дансуорт, Ник Бейтман, Брайан Дауни, Джереми Акерман, Дэвид Брант, Майкл Фокс, Паша Эбрахими и др.

Описание: В центре событий бомж, которому надоело наблюдать беспредел творящийся на улицах. В один прекрасный момент чаша его терпения переполняется, он хватает с витрины магазина дробовик и идет наводить справедливость, отстреливая бандитов, коррумпированных копов, педофилов и прочих уродов.



Качество: HDTVRip 720p(U-No)
Продолжительность: 01:26:05
Формат: MKV
Видео кодек: H.264
Аудио кодек: AC3
Видео: 1280 x 512; 23,976 fps; 6895 Kbps
Аудио1: Русский, AC3 5.1 384 Kbps 48,0 КГц(Котов)
Аудио2: Русский, AC3 5.1 384 Kbps 48,0 КГц(DVO)
Аудио3: English, АС3 5.1 384 Kbps 48,0 КГц(Оригинал)
Субтитры: softsub (SRT)

"Mediainfo" ▼
Hobo.with.a.Shotgun.2011.720p.HDTVRip.2xRus.Eng.mkv
General
Complete name : Hobo.with.a.Shotgun.2011.720p.HDTVRip.2xRus.Eng.mkv
Format : Matroska
File size : 4.84 GiB
Duration : 1h 26mn
Overall bit rate : 8 048 Kbps
Encoded date : UTC 2011-04-18 18:07:26
Writing application : mkvmerge v2.9.8 (Cest le bon) built on Aug 13 2009 12:49:06
Writing library : libebml v0.7.7 + libmatroska v0.8.1
Video #1
ID : 1
Format : AVC
Format/Info : Advanced Video Codec
Format profile : [email protected]
Format settings, CABAC : Yes
Format settings, ReFrames : 9 frames
Muxing mode : Container [email protected]
Codec ID : V_MPEG4/ISO/AVC
Duration : 1h 26mn
Bit rate : 6 895 Kbps
Width : 1 280 pixels
Height : 512 pixels
Display aspect ratio : 2.500
Frame rate : 23.976 fps
Color space : YUV
Chroma subsampling : 4:2:0
Bit depth : 8 bits
Scan type : Progressive
Bits/(Pixel*Frame) : 0.439
Stream size : 4.05 GiB (84%)
Writing library : x264 core 114 r1913 5fd3dce
Encoding settings : cabac=1 / ref=9 / deblock=1:-1:-1 / analyse=0x3:0x133 / me=umh / subme=10 / psy=1 / psy_rd=1.00:0.15 / mixed_ref=1 / me_range=16 / chroma_me=1 / trellis=2 / 8x8dct=1 / cqm=0 / deadzone=21,11 / fast_pskip=1 / chroma_qp_offset=-3 / threads=6 / sliced_threads=0 / nr=0 / decimate=1 / interlaced=0 / constrained_intra=0 / bframes=6 / b_pyramid=2 / b_adapt=2 / b_bias=0 / direct=1 / weightb=1 / open_gop=0 / weightp=2 / keyint=250 / keyint_min=23 / scenecut=40 / intra_refresh=0 / rc_lookahead=60 / rc=2pass / mbtree=1 / bitrate=6895 / ratetol=1.0 / qcomp=0.60 / qpmin=0 / qpmax=69 / qpstep=4 / cplxblur=20.0 / qblur=0.5 / ip_ratio=1.40 / aq=1:1.00
Language : English
Audio #2
ID : 2
Format : AC-3
Format/Info : Audio Coding 3
Mode extension : CM (complete main)
Codec ID : A_AC3
Duration : 1h 26mn
Bit rate mode : Constant
Bit rate : 384 Kbps
Channel(s) : 6 channels
Channel positions : Front: L C R, Side: L R, LFE
Sampling rate : 48.0 KHz
Bit depth : 16 bits
Stream size : 236 MiB (5%)
Title : Kotov AC3 5.1 384 kbps
Language : Russian
Audio #3
ID : 3
Format : AC-3
Format/Info : Audio Coding 3
Mode extension : CM (complete main)
Codec ID : A_AC3
Duration : 1h 26mn
Bit rate mode : Constant
Bit rate : 384 Kbps
Channel(s) : 6 channels
Channel positions : Front: L C R, Side: L R, LFE
Sampling rate : 48.0 KHz
Bit depth : 16 bits
Stream size : 236 MiB (5%)
Title : DVO AC3 5.1 384 kbps
Language : Russian
Audio #4
ID : 4
Format : AC-3
Format/Info : Audio Coding 3
Mode extension : CM (complete main)
Codec ID : A_AC3
Duration : 1h 26mn
Bit rate mode : Constant
Bit rate : 384 Kbps
Channel(s) : 6 channels
Channel positions : Front: L C R, Side: L R, LFE
Sampling rate : 48.0 KHz
Bit depth : 16 bits
Video delay : 32ms
St
1fa9d8948c77fd3907e857346b7db025ea4324c9Бомж с дробовиком / Hobo with a Shotgun (Джейсон Айзенер / Jason Eisener, США, Канада, боевик, триллер, криминал, 2011) [HDTVRip 720p, AVO (Котов) + DVO + Original (Eng) + Sub (2xRus, Eng)] Бомж с дробовиком / Hobo with a Shotgun (Джейсон Айзенер / Jason Eisener, США, Канада, боевик, триллер, криминал, 2011) [HDTVRip 720p, AVO (Котов) + DVO + Original (Eng) + Sub (2xRus, Eng)] " />

Аплоадер: Админ, дата: 8-05-2011, 09:58, торрент скачан: 359 раз

Понравилась раздача? Посмотрите эти:
  • Погнали! / Getaway (Кортни Соломон, боевик, криминал, 2013) [BDRip 720p, Пр ...
  • Верное дельце / Une pure affaire (Александр Коффре, Боевик, Комедия, Кримин ...
  • Кровью и потом: Анаболики / Pain & Gain (Майкл Бэй, криминал, комедия, трил ...
  • Добро пожаловать в капкан / Welcome to the Punch (Эрен Криви, боевик, трил ...
  • UFC The Ultimate 100 Knockouts - PPV [MMA,2013, HDTVRip 720p]
  • Водитель / The Driver (Уолтер Хилл, Боевик, триллер, драма, криминал, 1978) ...
  • Убить по расписанию / Ticking Clock (Эрни Барбараш, фантастика, боевик, три ...
  • Шелуха / Husk (Бретт Симмонс, ужасы, триллер, 2011) [BDRip 720p, Профессион ...
  • Военные Игры / War Games: At The End Of The Day ( Козимо Алема, триллер, у ...
  • Идеальный Голос / Pitch Perfect (Джейсон Мур, Комедия, музыка, 2012) [BDRip ...
  • Геркулес / Hercules (Рон Клементс, Джон Маскер, Мультфильм, 1997 г.)[HDTVRi ...
  • Плохие парни 2 / Bad Boys II (Майкл Бэй, Боевик, триллер, комедия, криминал ...
  • Исходный код / Source Code (Дункан Джонс, фантастика, боевик, триллер, 2011 ...
  • Далеко-далеко / Far and Away (Рон Ховард, драма, мелодрама, приключения, ве ...
  • Красавчик Джонни / Johnny Handsome (Уолтер Хилл, Триллер, драма, криминал, ...
  • Похищенная / A Lonely Place to Die (Джулиан Джилби, триллер, криминал, прик ...
  • Ворон / The Raven (Джеймс МакТиг, Триллер, детектив, 2012) [BDRip 720p, Дуб ...
  • Чемпионат Европы 2012 / 1/4 финала / Чехия - Португалия / Спорт 1 HD [Футбо ...
  • Чемпионат Европы 2012 / 1/2 финала / Португалия - Испания / Спорт 1 HD [Фу ...
  • Чемпионат Европы 2012 / 1/2 финала / Германия - Италия / Спорт 1 HD [Футбо ...
  • Формула 1. Сезон 2012. Этап 13 из 20. Гран-При Италии, Квалификация. [2012 ...
  • Mylene Farmer / Du Temps [2011, Pop, HDTVRip]
  • Mylene Farmer / Bleu Noir [2011, Pop, HDTVRip]
  • Бомж с дробовиком / Hobo with a Shotgun (Джейсон Айзенер, Боевик, триллер, ...
  • Бомж с дробовиком / Hobo with a Shotgun (Джейсон Айснер, боевик, триллер, к ...
  • Информация
    Посетители, находящиеся в группе Гости, не могут оставлять комментарии к данной публикации.