вход на сайт

Имя пользователя :
Пароль :

Восстановление пароля Регистрация
Король говорит! / The Kings Speech (Том Хупер, драма, биография, история, 2010) [BDRip, 1080p, Профессиональный (полное дублирование) + Оригинал]
Рейтинг:
(голосов: 1)



[img]{THEME}/images/logopost.png[/img]



Король говорит! / The Kings Speech

Год выпуска: 2010
Страна: США, Великобритания, Австралия
Производство: See-Saw Films, Bedlam Productions
Жанр: драма, биография, история

Режиссёр: Том Хупер
В ролях: Колин Фёрт, Хелена Бонем Картер, Джеффри Раш, Дерек Джекоби, Роберт Порталь, Ричард Диксон, Пол Трасселл, Эдриан Скарборо, Эндрю Хавилл, Чарльз Армстронг

Перевод: Профессиональный (полное дублирование) + Оригинал
Субтитры: Русские, Английские

Описание: Сюжет ленты расскажет о герцоге, который готовится вступить в должность британского короля Георга VI, отца нынешней королевы Елизаветы II. После того, как его брат отрекается от престола, герой неохотно соглашается на трон. Измученный страшным нервным заиканием и сомнениями в своих способностях руководить страной, Георг обращается за помощью к неортодоксальному логопеду по имени Лайонел Лог. После серии неожиданных техник и в результате дружбы двух непохожих людей, герой наконец обретает свой королевский голос и смело ведет Англию на войну.

IMDB: 8.4/10 (22 876)
КиноПоиск: 8.32/10 (13 872)

Качество: BDRip
Продолжительность: 01:58:29

Формат: MKV
Видео кодек: H.264
Аудио кодек: DTS, AC3
Видео: 1920x1080, 23.976 fps, 12.4 mb/s
Аудио #1: 48 kHz, AC3, 3/2 (L,C,R,l,r) + LFE ch, ~448.00 kbps avg
Аудио #2: 48 kHz, DTS, 3/2 (L,C,R,l,r) + LFE ch, ~1510.00 kbps avg

MediaInfo:
▼Format : Matroska
File size : 11.9 GiB
Duration : 1h 58mn
Overall bit rate : 14.3 Mbps
Movie name : --Talian--
Encoded date : UTC 2011-04-02 18:23:39
Writing application : mkvmerge v3.3.0 (Language) сборка от May 14 2010 17:11:50
Writing library : libebml v0.8.0 + libmatroska v0.9.0

Video
ID : 1
Format : AVC
Format/Info : Advanced Video Codec
Format profile : [email protected]
Format settings, CABAC : Yes
Format settings, ReFrames : 4 frames
Codec ID : V_MPEG4/ISO/AVC
Duration : 1h 58mn
Bit rate : 12.4 Mbps
Width : 1 920 pixels
Height : 1 080 pixels
Display aspect ratio : 16:9
Frame rate : 23.976 fps
Color space : YUV
Chroma subsampling : 4:2:0
Bit depth : 8 bits
Scan type : Progressive
Bits/(Pixel*Frame) : 0.249
Stream size : 10.0 GiB (84%)
Title : The.Kings.Speech.2010
Writing library : x264 core 114 r1924 08d04a4
Encoding settings : cabac=1 / ref=4 / deblock=1:-3:-3 / analyse=0x3:0x113 / me=umh / subme=10 / psy=1 / psy_rd=1.05:0.10 / mixed_ref=1 / me_range=48 / chroma_me=1 / trellis=2 / 8x8dct=1 / cqm=2 / deadzone=21,11 / fast_pskip=0 / chroma_qp_offset=-2 / threads=12 / sliced_threads=0 / nr=0 / decimate=1 / interlaced=0 / constrained_intra=0 / bframes=6 / b_pyramid=2 / b_adapt=2 / b_bias=0 / direct=3 / weightb=1 / open_gop=0 / weightp=2 / keyint=250 / keyint_min=23 / scenecut=40 / intra_refresh=0 / rc_lookahead=60 / rc=2pass / mbtree=1 / bitrate=12385 / ratetol=1.0 / qcomp=0.70 / qpmin=1 / qpmax=63 / qpstep=4 / cplxblur=20.0 / qblur=0.5 / vbv_maxrate=40000 / vbv_bufsize=30000 / nal_hrd=none / ip_ratio=1.40 / aq=1:0.90
Language : English

Audio #1
ID : 2
Format : AC-3
Format/Info : Audio Coding 3
Mode extension : CM (complete main)
Codec ID : A_AC3
Duration : 1h 58mn
Bit rate mode : Constant
Bit rate : 448 Kbps
Channel(s) : 6 channels
Channel positions : Front: L C R, Side: L R, LFE
Sampling rate : 48.0 KHz
Bit depth : 16 bits
Compression mode : Lossy
Stream size : 380 MiB (3% )
Title : Дубляж
Language : Russian

Audio #2
ID : 3
Format : DTS
Format/Info : Digital Theater Systems
Codec ID : A_DTS
Duration : 1h 58mn
Bit rate mode : Constant
Bit rate : 1 510 Kbps
Channel(s) : 6 channels
Channel positions : Front: L C R, Side: L R, LFE
Sampling rate : 48.0 KHz
Bit depth : 24 bits
Compression mode : Lossy
Stream size : 1.25 GiB (11%)
Title : Оригинал
Language : English

Text #1
ID : 4
Format : UTF-8
Codec ID : S_TEXT/UTF8
Codec ID/Info : UTF-8 Plain Text
Title : Sub
Language : Russian

T
93e068fc9726f1dedbcc69905556f7438a31a0b1Король говорит! / The Kings Speech (Том Хупер, драма, биография, история, 2010) [BDRip, 1080p, Профессиональный (полное дублирование) + Оригинал] Король говорит! / The Kings Speech (Том Хупер, драма, биография, история, 2010) [BDRip, 1080p, Профессиональный (полное дублирование) + Оригинал] " />

Аплоадер: Админ, дата: 5-04-2011, 15:33, торрент скачан: 359 раз

Понравилась раздача? Посмотрите эти:
  • Пастырь / Priest (Скотт Чарльз Стюарт, ужасы, фантастика, боевик, триллер, ...
  • Король говорит! / The Kings Speech (Том Хупер / Tom Hooper) [2010, США, дра ...
  • Жизнь Пи / Life Of Pi (Энг Ли, Драма, приключения, 2012) [BDRip 1080p, Проф ...
  • Суррогат / The Sessions (Бен Луин, драма, 2012) [BDRip 720p, Профессиональн ...
  • Король говорит! / The Kings Speech (Том Хупер, драма, история, 2010г.) [HDR ...
  • Король говорит! / The Kings Speech (Том Хупер, драма, биография, история, 2 ...
  • Король говорит! / The Kings Speech (Дэвид Сайдлер, драма, биография, истори ...
  • Персонаж / Stranger Than Fiction (Марк Форстер, Комедия, драма, фантастика, ...
  • Король говорит! / The Kings Speech (Том Хупер, драма, биография, история, 2 ...
  • Исходный код / Source Code (Дункан Джонс, фантастика, боевик, триллер, 2011 ...
  • Бобер / The Beaver (Джоди Фостер, драма, 2011) [BDRip 720p, Дубляж + Оригин ...
  • Двойник дьявола / The Devils Double (Ли Тамахори, драма, биография, 2011) [ ...
  • Погоня / Abduction (Джон Синглтон, боевик, триллер, драма, детектив,2011) [ ...
  • Чаббчаббы спасают Рождество / The Chubbchubbs Save Xmas (Коуди Камерон, мул ...
  • Профессионал / Killer Elite (Гэри МакКендри, Боевик, Триллер, Криминал, 201 ...
  • Человек, который изменил всё / Moneyball (Беннетт Миллер, драма, биография, ...
  • Домашняя работа / The Art of Getting By (Гэвин Вьесен, драма, мелодрама, 20 ...
  • Слова / The Words (Брайан Клагман, Ли Стернтал, Драма, мелодрама, 2012) [BD ...
  • Mylene Farmer / Du Temps [2011, Pop, HDTVRip]
  • Mylene Farmer / Bleu Noir [2011, Pop, HDTVRip]
  • Информация
    Посетители, находящиеся в группе Гости, не могут оставлять комментарии к данной публикации.