вход на сайт

Имя пользователя :
Пароль :

Восстановление пароля Регистрация
Гриффины: Это ловушка! / Family Guy Presents: Its a Trap! (Питер Шин / мультфильм, фантастика, комедия / 2010) [BDRip 1080p, Профессиональный (многоголосый закадровый) + Оригинал + Субтитры]
Рейтинг:
(голосов: 1)



[img]{THEME}/images/logopost.png[/img]



• Гриффины: Это ловушка! / Family Guy Presents: Its a Trap! •
Год выпуска: 2010г.
Страна: США
Производство: 20th Century Fox Television, Fuzzy Door Productions
Жанр: мультфильм, фантастика, комедия
Режиссёр: Питер Шин
Роли озвучивали:: Сет МакФарлейн, Алекс Борштейн, Сет Грин, Мила Кунис, Майк Генри и другие.
Перевод: Профессиональный (многоголосый закадровый) (FiLiZa Studio)
Субтитры: русские, английские
Описание:
Это последняя часть пародий на Звездные Войны с Гриффинами. В этой зрелищной и насыщенной действием финальной части Люк Скайвокер и Принцесса Лея должны полететь на Татуин чтобы освободить Хана Соло из рук Джаббы, самого отвратительного и ужасного гангстера в галактике. Объединившись, команда с помощью племени Эвоков сразится с имперскими силами на Эндоре.


Качество: BDRip 1080p
Продолжительность: 00:56:35

Формат: MKV
Видео кодек: AVC
Аудио кодек: DTS /AC-3
Видео: 1920x1080 (1.77:1), 23.976 fps, 5999 kbps avg, 0.121 bit/pixel
Аудио#1: 48 kHz, 6 ch, 1510 kbps avg (RUS)
Аудио#2: 48 kHz, 6 ch, 1510 kbps avg (ENG)
Аудио#3: 48 kHz, 2 ch, 224 kbps Commentary (ENG)
MediaInfo ▼TextGeneral
Video
ID : 1
Format : AVC
Format/Info : Advanced Video Codec
Format profile : [email protected]
Format settings, CABAC : Yes
Format settings, ReFrames : 5 frames
Codec ID : V_MPEG4/ISO/AVC
Duration : 56mn 35s
Bit rate : 5 999 Kbps
Width : 1 920 pixels
Height : 1 080 pixels
Display aspect ratio : 16:9
Frame rate : 23.976 fps
Color space : YUV
Chroma subsampling : 4:2:0
Bit depth : 8 bits
Scan type : Progressive
Bits/(Pixel*Frame) : 0.121
Stream size : 2.30 GiB (63%)
Writing library : x264 core 112 r1834 a51816a
Encoding settings : cabac=1 / ref=5 / deblock=1:-3:-3 / analyse=0x3:0x133 / me=tesa / subme=9 / psy=1 / psy_rd=1.00:0.00 / mixed_ref=1 / me_range=24 / chroma_me=1 / trellis=2 / 8x8dct=1 / cqm=0 / deadzone=21,11 / fast_pskip=0 / chroma_qp_offset=-2 / threads=6 / sliced_threads=0 / nr=0 / decimate=1 / interlaced=0 / constrained_intra=0 / bframes=9 / b_pyramid=2 / b_adapt=2 / b_bias=0 / direct=3 / weightb=1 / open_gop=0 / weightp=2 / keyint=250 / keyint_min=23 / scenecut=40 / intra_refresh=0 / rc=2pass / mbtree=0 / bitrate=5999 / ratetol=1.0 / qcomp=0.60 / qpmin=10 / qpmax=51 / qpstep=4 / cplxblur=20.0 / qblur=0.5 / ip_ratio=1.40 / pb_ratio=1.30 / aq=2:0.60
Language : English

Audio #1
ID : 2
Format : DTS
Format/Info : Digital Theater Systems
Codec ID : A_DTS
Duration : 56mn 35s
Bit rate mode : Constant
Bit rate : 1 510 Kbps
Channel(s) : 6 channels
Channel positions : Front: L C R, Side: L R, LFE
Sampling rate : 48.0 KHz
Bit depth : 24 bits
Stream size : 611 MiB (16%)
Language : Russian

Audio #2
ID : 3
Format : DTS
Format/Info : Digital Theater Systems
Codec ID : A_DTS
Duration : 56mn 35s
Bit rate mode : Constant
Bit rate : 1 510 Kbps
Channel(s) : 6 channels
Channel positions : Front: L C R, Side: L R, LFE
Sampling rate : 48.0 KHz
Bit depth : 24 bits
Video delay : 10ms
Stream size : 611 MiB (16%)
Language : English

Audio #3
ID : 4
Format : AC-3
Format/Info : Audio Coding 3
Mode extension : CM (complete main)
Codec ID : A_AC3
Duration : 56mn 35s
Bit rate mode : Constant
Bit rate : 224 Kbps
Channel(s) : 2 channels
Channel positions : Front: L R
Sampling rate : 48.0 KHz
Bit depth : 16 bits
Stream size : 90.7 MiB (2%)
Title : Commentary
Language : English

Text #1
ID : 5
Format : UTF-8
Codec ID : S_TEXT/UTF8
Codec ID/Info : UTF-8 Plain Text
Language : Russian

Text #2
ID : 6
Format : PGS
Codec ID : S_HDMV/PGS
Codec ID/Info : The same subtitle format used on BDs/HD-DVDs
Language : English
Релиз Группы "Virtus"

Стол заказов по рипам / Вступление в РГ / Благодарности, критика и другое


57a2f828396f0c734f3075d362c4350d2329e78eГриффины: Это ловушка! / Family Guy Presents: Its a Trap! (Питер Шин / мультфильм, фантастика, комедия / 2010) [BDRip 1080p, Профессиональный (многоголосый закадровый) + Оригинал + Субтитры] Гриффины: Это ловушка! / Family Guy Presents: Its a Trap! (Питер Шин / мультфильм, фантастика, комедия / 2010) [BDRip 1080p, Профессиональный (многоголосый закадровый) + Оригинал + Субтитры] " />

Аплоадер: Админ, дата: 25-02-2011, 08:54, торрент скачан: 359 раз

Понравилась раздача? Посмотрите эти:
  • За кадром... / In a World...(Лэйк Белл, комедия, 2013) [BDRip-AVC, Професси ...
  • Погнали! / Getaway (Кортни Соломон, боевик, криминал, 2013) [BDRip 720p, Пр ...
  • 42 / 42 (Брайан Хелгеленд, Драма, биография, спорт, 2013) [BDRip 720p, Проф ...
  • Смерть на похоронах / Death at a Funeral (Нил ЛаБут, комедия, 2010) [BDRip ...
  • [3D] Обитель Зла: Проклятие / Biohazard: Damnation (Макото Камия, мультфиль ...
  • Суррогат / The Sessions (Бен Луин, драма, 2012) [BDRip 720p, Профессиональн ...
  • Зубная фея 2 / Tooth Fairy 2 (Алекс Замм, комедия, семейный, 2012) [BDRip 7 ...
  • Убить по расписанию / Ticking Clock (Эрни Барбараш, фантастика, боевик, три ...
  • Цельнометаллическая оболочка / Full Metal Jacket (Стэнли Кубрик, драма, вое ...
  • Персонаж / Stranger Than Fiction (Марк Форстер, Комедия, драма, фантастика, ...
  • Футурама: Игра Бендера / Futurama: Benders Game (Дуэйн Кэри-Хилл / мультфил ...
  • Гриффины: Это ловушка! / Family Guy Presents: Its a Trap (Питер Шин / Peter ...
  • Футурама: Зверь с миллиардом спин / Futurama: The Beast with a Billion Back ...
  • Дети шпионов 4D / Spy Kids: All the Time in the World in 4D (Роберт Родриге ...
  • Восстание планеты обезьян / Rise of the Planet of the Apes (Руперт Уайатт, ...
  • Один Дома / Home Alone (Крис Коламбус, комедия, приключения, семейный, 1990 ...
  • Чаббчаббы спасают Рождество / The Chubbchubbs Save Xmas (Коуди Камерон, мул ...
  • Профессионал / Killer Elite (Гэри МакКендри, Боевик, Триллер, Криминал, 201 ...
  • Чужие на районе / Attack the Block (Джо Корниш, фантастика, боевик, комедия ...
  • Рыжий пес / Red Dog (Крив Стендерс, драма, комедия, семейный, 2011) [BDRip ...
  • Рыжий пес / Red Dog (Крив Стендерс, драма, комедия, семейный, 2011) [BDRip ...
  • Похищенная / A Lonely Place to Die (Джулиан Джилби, триллер, криминал, прик ...
  • Хижина в лесу / The Cabin in the Woods (Дрю Годдард, Ужасы, фантастика, три ...
  • Люди как мы / People Like Us (Алекс Куртцман, Драма, 2012) [BDRip 1080p, Пр ...
  • Сверхновый Супермен / All-Star Superman (Сэм Лью, мультфильм, фантастика, б ...
  • Информация
    Посетители, находящиеся в группе Гости, не могут оставлять комментарии к данной публикации.