вход на сайт

Имя пользователя :
Пароль :

Восстановление пароля Регистрация
Аватар / Avatar (Джеймс Кэмерон, боевик, приключения, фантастика, 2009) [BDRip 720p (47.952 fps), Профессиональный (полное дублирование)]
Рейтинг:
(голосов: 1)



[img]{THEME}/images/logopost.png[/img]



Аватар / Avatar

Год выпуска: 2009
Страна: США
Производство: Twentieth Century Fox Film Corporation
Жанр: боевик, приключения, фантастика

Режиссёр: Джеймс Кэмерон / James Cameron
В ролях: Сэм Уортингтон, Зои Салдана, Сигурни Уивер, Стивен Лэнг, Джоэль Мур, Джованни Рибизи, Мишель Родригес, Лас Алонсо, Уэс Студи, Си Си Эйч Паундер

Перевод: Профессиональный (полное дублирование)
Субтитры: Русские

Описание: Джейк Салли — бывший морской пехотинец, прикованный к инвалидному креслу. Несмотря на немощное тело, Джейк в душе по-прежнему остается воином. Он получает задание совершить путешествие в несколько световых лет к базе землян на планете Пандора, где корпорации добывают редкий минерал, имеющий огромное значение для выхода Земли из энергетического кризиса.

IMDB: 8.3/10 (285,952)
КиноПоиск: 8.405 (105 855)

Доп. информация: ▼ В данной версии частота кадров удвоена до 47.952. Каждый второй кадр воссоздан специальным алгоритмом с максимальными настройками качества (Smooth Video Pack + MVTools2).

Качество: BDRip 720p
Продолжительность: 02:37:02

Формат: MKV
Видео кодек: H.264
Аудио кодек: AС3
Видео: 1280x720, 47.952 fps, MPEG4 Video ( x264 crf=18 ), ~ 10.9 Mbps, 0.247 bit/pixel
Аудио: Русский: 48 kHz (AC3), 6ch, ~ 384 kb/s

Сэмпл (files.gw)
Сэмпл (Megafree)

Отзывы об этой версии: ▼
"Не думал, что в очередной раз буду смотреть Аватара, но теперь просто не возможно удержаться."
"Я восторге, картинка как будто реальная съёмка, как настоящая."
"Начал смотреть. Очень впечатляет. Честно, первый раз такое вижу на своём мониторе."
"Очень круто. Ещё раз спасибо."
"Уж больно хорошо у вас получилось."
"Суперски впервые такое вижу но мне это однозначно нравится."
"Вау, выглядит шикарно! Спасибо автору за старание."
"В данной версии ощущения от просмотра отличаются от обычной версии и от 3D в кино! больше реалистичности и эффекта присутствия, как ни странно."
"Там где погоня чудища за главным героем (29мин), в кинотеатре и в обычном HD смотрелось сумбурно - плохо было понять что происходит. А тут все четко и понятно."

Данные MediaInfo: ▼
General
Complete name : Avatar 48 fps.mkv
Format : Matroska
File size : 13.0 GiB
Duration : 2h 41mn
Overall bit rate : 11.5 Mbps
Encoded date : UTC 2010-05-10 12:42:36
Writing application : mkvmerge v3.3.0 (Language) built on Mar 24 2010 14:59:24
Writing library : libebml v0.8.0 + libmatroska v0.9.0

Video
ID : 1
Format : AVC
Format/Info : Advanced Video Codec
Format profile : [email protected]
Format settings, CABAC : Yes
Format settings, ReFrames : 3 frames
Muxing mode : Container [email protected]
Codec ID : V_MPEG4/ISO/AVC
Duration : 2h 41mn
Bit rate : 10.9 Mbps
Width : 1 280 pixels
Height : 720 pixels
Display aspect ratio : 16:9
Frame rate : 47.952 fps
Resolution : 8 bits
Colorimetry : 4:2:0
Scan type : Progressive
Bits/(Pixel*Frame) : 0.247
Stream size : 12.3 GiB (95%)
Writing library : x264 core 93 r1538bm bd72d46
Encoding settings : cabac=1 / ref=3 / deblock=1:0:0 / analyse=0x3:0x13 / me=umh / subme=7 / psy=1 / psy_rd=1.00:0.00 / mixed_ref=1 / me_range=16 / chroma_me=1 / trellis=1 / 8x8dct=1 / cqm=0 / deadzone=21,11 / fast_pskip=1 / chroma_qp_offset=-2 / threads=2 / sliced_threads=1 / slices=2 / nr=0 / decimate=1 / interlaced=0 / constrained_intra=0 / bframes=0 / wpredp=2 / keyint=250 / keyint_min=25 / scenecut=40 / intra_refresh=0 / rc=crf / mbtree=0 / crf=18.0 / qcomp=0.60 / qpmin=10 / qpmax=51 / qpstep=4 / ip_ratio=1.40 / aq=1:1.00

Audio
ID : 2
Format : AC-3
Format/Info : Audio Coding 3
Codec ID : A_AC3
Duration : 2h 41mn
Bit rate mode : Constant
Bit rate : 384 Kbps
Channel(s) : 6 channels
Channel positions : Front: L C R, Side: L R, LFE
Sampling rate : 48.0 KHz
Stream size : 444 MiB (3%)
Title : Дубляж
Language : Russian

Text
ID : 3
Format : UTF-8
Codec ID : S_TEXT/UTF8
Codec ID/Info : UT
105d156a1a614df16039c1ec87a2529133f0fa06Аватар / Avatar (Джеймс Кэмерон, боевик, приключения, фантастика, 2009) [BDRip 720p (47.952 fps), Профессиональный (полное дублирование)] Аватар / Avatar (Джеймс Кэмерон, боевик, приключения, фантастика, 2009) [BDRip 720p (47.952 fps), Профессиональный (полное дублирование)] " />

Аплоадер: Админ, дата: 9-01-2011, 19:38, торрент скачан: 359 раз

Понравилась раздача? Посмотрите эти:
  • Аватар [Расширенная версия] / Avatar [EXTENDED] (Джеймс Кэмерон, фантастика ...
  • Аватар [Расширенная версия] / Avatar [Extended edition] (Джеймс Кэмерон, фа ...
  • Аватар / Avatar (Джеймс Кэмерон / James Cameron, Фантастика, боевик, трилле ...
  • Аватар / Avatar (Джеймс Кэмерон / James Cameron, Фантастика, боевик, трилле ...
  • Аватар [Расширенная версия] / Avatar [Extended edition] (Джеймс Кэмерон / J ...
  • Аватар [Расширенная версия] / Avatar [Extended Cut] (Джеймс Кэмерон, фантас ...
  • Аватар / Avatar [Театральная версия / Theatrical Cut] (Джеймс Кэмерон, фант ...
  • [3D] Аватар 3D / Avatar 3D (Джеймс Кэмерон / James Cameron, Фантастика, бое ...
  • Аватар 3Д / Avatar 3D (Джеймс Кэмерон / James Cameron,фантастика, боевик, т ...
  • [3D] Аватар 3Д / Avatar 3D (James Cameron / Джеймс Кэмерон, Фантастика, Бое ...
  • [3D] Аватар 3Д / Avatar 3D (James Cameron / Джеймс Кэмерон, Фантастика, Бое ...
  • [3D] Аватар 3D + 2D / Avatar (Джеймс Кэмерон, Фантастика,Боевик,Приключения ...
  • Аватар / Avatar (Джеймс Кэмерон, Фантастика, Боевик, Триллер, Драма, Приклю ...
  • Аватар / Avatar (Джеймс Кэмерон / James Cameron, Фантастика, боевик, трилле ...
  • Аватар (Коллекционное Издание) / Avatar (Extended Collectors Cut)(Джеймс Кэ ...
  • Аватар [Расширенная версия] / Avatar [Extended edition] (Джеймс Кэмерон / J ...
  • Аватар / Avatar (Джеймс Кэмерон, фантастика, боевик, триллер, драма, приклю ...
  • Аватар / Avatar (Джеймс Кэмерон, фантастика, боевик, драма, 2009) [BDRip (и ...
  • Аватар / Avatar [Джеймс Кэмерон, Фантастика, 2009] [HDRip, Дублированный]
  • Аватар / Avatar (Джеймс Кэмерон, фантастика, приключения, 2009) [DVD Rip, ...
  • Аватар / Avatar (Джеймс Кэмерон, фантастика, боевик, триллер, драма, приклю ...
  • Аватар [Расширенная версия] / Avatar [Extended edition] (Джеймс Кэмерон / J ...
  • [3D] Аватар 3Д / Avatar 3D (Джеймс Кэмерон / James Cameron, фантастика, бое ...
  • [3D] Аватар / Avatar (Джеймс Кэмерон / James Cameron, фантастика, боевик, д ...
  • [3D] Аватар 3Д / Avatar 3D (Джеймс Кэмерон / James Cameron) [2009 г., фанта ...
  • Информация
    Посетители, находящиеся в группе Гости, не могут оставлять комментарии к данной публикации.