вход на сайт

Имя пользователя :
Пароль :

Восстановление пароля Регистрация
Мальчики-налётчики / Takers (Джон Льюсенхоп, боевик, криминал, 2010) [BDRip 1080p, Дубляж]
Рейтинг:
(голосов: 1)



[img]{THEME}/images/logopost.png[/img]




Мальчики-налётчики / Takers

Год выпуска: 2010
Страна: США
Производство: Screen Gems / Rainforest Films / Grand Hustle Films
Жанр: боевик, криминал

Режиссёр: Джон Льюсенхоп
В ролях: Пол Уокер, Хейден Кристенсен, Мэтт Диллон, Зои Салдана, Марианн Жан-Баптист, Крис Браун, Майкл Или, Идрис Эльба, Стив Харрис, Ти Ай

Перевод:Профессиональный (полное дублирование) [Лицензия]
Субтитры: указать: Русский (с DVD R5, переведена одна строчка в конце, название фильма), Английские

Описание: После серии блестяще спланированных ограблений банков команда взломщиков-профи, известных на всю Калифорнию, решается пойти на последнее, самое прибыльное дело. Такой шанс просто нельзя упустить, ведь на кону 25 миллионов долларов. Вот только есть один упертый полицейский, который готов на все, чтобы уничтожить банду мальчиков-налетчиков…

IMDB: рейтинг5,5 (5 164)
КиноПоиск: рейтинг 6,67 (4330)

Качество: BDRip 1080p
Продолжительность: 01:47:05

Формат: MKV
Видео кодек: H.264
Аудио кодек: AС3, DTS
Видео: 1920x800 / 23.976 fps / H.264 / 12000 kbps
Аудио1: Русский,48 kHz,AC3 Dolby Digital, 5.1, 384 kbps
Аудио2: Оригинaл,48 kHz,DTS, 5.1, 1536 kbps

MediaInfo ▼TextFormat : Matroska
File size : 10.4 GiB
Duration : 1h 47mn
Overall bit rate : 13.9 Mbps
Movie name : Takers.2010.BluRay.1080p.DTS.x264-CHD
Encoded date : UTC 2010-12-20 10:04:07
Writing application : mkvmerge v4.4.0 (Die Wiederkehr) сборка от Oct 31 2010 21:52:48
Writing library : libebml v1.0.0 + libmatroska v1.0.0

Video
ID : 1
Format : AVC
Format/Info : Advanced Video Codec
Format profile : [email protected]
Format settings, CABAC : Yes
Format settings, ReFrames : 5 frames
Format settings, GOP : M=6, N=16
Muxing mode : Container [email protected]
Codec ID : V_MPEG4/ISO/AVC
Duration : 1h 47mn
Bit rate : 12.0 Mbps
Width : 1 920 pixels
Height : 800 pixels
Display aspect ratio : 2.40:1
Frame rate : 23.976 fps
Color space : YUV
Chroma subsampling : 4:2:0
Bit depth : 8 bits
Scan type : Progressive
Bits/(Pixel*Frame) : 0.326
Stream size : 8.77 GiB (84%)
Writing library : x264 core 107 r1766 f9f0035
Encoding settings : cabac=1 / ref=5 / deblock=1:-3:-3 / analyse=0x3:0x113 / me=umh / subme=10 / psy=1 / psy_rd=1.00:0.00 / mixed_ref=1 / me_range=48 / chroma_me=1 / trellis=2 / 8x8dct=1 / cqm=2 / deadzone=21,11 / fast_pskip=0 / chroma_qp_offset=-1 / threads=12 / sliced_threads=0 / nr=0 / decimate=1 / interlaced=0 / constrained_intra=0 / bframes=6 / b_pyramid=2 / b_adapt=2 / b_bias=0 / direct=3 / weightb=1 / open_gop=0 / weightp=2 / keyint=250 / keyint_min=23 / scenecut=40 / intra_refresh=0 / rc_lookahead=40 / rc=2pass / mbtree=0 / bitrate=12000 / ratetol=1.0 / qcomp=0.70 / qpmin=10 / qpmax=51 / qpstep=4 / cplxblur=20.0 / qblur=0.5 / vbv_maxrate=45000 / vbv_bufsize=40000 / ip_ratio=1.40 / pb_ratio=1.30 / aq=1:0.90 / nal_hrd=none

Audio #1
ID : 2
Format : AC-3
Format/Info : Audio Coding 3
Mode extension : CM (complete main)
Codec ID : A_AC3
Duration : 1h 47mn
Bit rate mode : Constant
Bit rate : 384 Kbps
Channel(s) : 6 channels
Channel positions : Front: L C R, Side: L R, LFE
Sampling rate : 48.0 KHz
Stream size : 294 MiB (3
Title : Dub
Language : Russian

Audio #2
ID : 3
Format : DTS
Format/Info : Digital Theater Systems
Codec ID : A_DTS
Duration : 1h 47mn
Bit rate mode : Constant
Bit rate : 1 510 Kbps
Channel(s) : 6 channels
Channel positions : Front: L C R, Side: L R, LFE
Sampling rate : 48.0 KHz
Bit depth : 24 bits
Stream size : 1.13 GiB (11%)

Text #1
ID : 4
Format : UTF-8
Codec ID : S_TEXT/UTF8
Codec ID/Info : UTF-8 Plain Text
Language : Russian

Text #2
ID : 5
Format : UTF-8
Codec ID : S_TEXT/UTF8
Codec ID/Info : UTF-8 Plain Text



9f96e04bcb8cc3d7aeb735db2ef9e2535c39bac7Мальчики-налётчики / Takers (Джон Льюсенхоп, боевик, криминал, 2010) [BDRip 1080p, Дубляж] Мальчики-налётчики / Takers (Джон Льюсенхоп, боевик, криминал, 2010) [BDRip 1080p, Дубляж] " />

Аплоадер: Админ, дата: 24-12-2010, 23:38, торрент скачан: 359 раз

Понравилась раздача? Посмотрите эти:
  • Честь дракона / Tom yum goong (Прачья Пинкаю, боевик, триллер, драма, крим ...
  • Суррогат / The Sessions (Бен Луин, драма, 2012) [BDRip 720p, Профессиональн ...
  • Зубная фея 2 / Tooth Fairy 2 (Алекс Замм, комедия, семейный, 2012) [BDRip 7 ...
  • Мальчики-налётчики / Takers (Джон Льюсенхоп, боевик, криминал, 2010) [HDRip ...
  • Персонаж / Stranger Than Fiction (Марк Форстер, Комедия, драма, фантастика, ...
  • Мальчики-налетчики / Takers (Джон Льюсенхоп, боевик, криминал, 2010) [BDRip ...
  • [3D] Шаг вперед 3D / Step Up 3D (Джон М. Чу, мелодрама, драма, музыка, 2010 ...
  • [3D] Глаз ребенка / Childs Eye (Оксид Пан, ужасы, 2010) [BDrip, Профессиона ...
  • Исходный код / Source Code (Дункан Джонс, фантастика, боевик, триллер, 2011 ...
  • Бобер / The Beaver (Джоди Фостер, драма, 2011) [BDRip 720p, Дубляж + Оригин ...
  • Дети шпионов 4D / Spy Kids: All the Time in the World in 4D (Роберт Родриге ...
  • Конан-варвар / Conan the Barbarian (Маркус Ниспел, фэнтези, боевик, приключ ...
  • Погоня / Abduction (Джон Синглтон, боевик, триллер, драма, детектив,2011) [ ...
  • Профессионал / Killer Elite (Гэри МакКендри, Боевик, Триллер, Криминал, 201 ...
  • Время / In Time (Эндрю Никкол, фантастика, триллер, драма, мелодрама, крими ...
  • Хижина в лесу / The Cabin in the Woods (Дрю Годдард, Ужасы, фантастика, три ...
  • Супер Майк / Magic Mike (Стивен Содерберг, Драма, комедия, 2012) [BDRip 108 ...
  • Mylene Farmer / Du Temps [2011, Pop, HDTVRip]
  • Mylene Farmer / Bleu Noir [2011, Pop, HDTVRip]
  • Мальчики-налетчики / Takers (Джон Льюсенхоп / John Luessenhop, боевик, трил ...
  • Мальчики-налётчики / Takers (Джон Льюсенхоп, боевик, криминал, 2010) [BDRip ...
  • [3D] Шаг вперед / Step Up (Джон М. Чу, драма, мелодрама, музыка, 2010) [B ...
  • Мальчики-налетчики / Takers (Джон Льюсенхоп, Боевик, 2010) [BDRip, Професси ...
  • Madonna / Girl Gone Wild [2012, Pop, HDTV]
  • Мальчики-налетчики / Takers (Джон Льюсенхоп, боевик, криминал, 2010) [BDRip ...
  • Информация
    Посетители, находящиеся в группе Гости, не могут оставлять комментарии к данной публикации.