вход на сайт

Имя пользователя :
Пароль :

Восстановление пароля Регистрация
Социальная сеть / The Social Network (Дэвид Финчер, драма, биография, история, 2010) [BDRip 720p, Дубляж + оригинал]
Рейтинг:
(голосов: 1)



[img]{THEME}/images/logopost.png[/img]



Социальная сеть / The Social Network
«Нельзя завести 500 миллионов друзей, не нажив ни одного врага.»


Год выпуска: 2010
Страна: США
Производство: Columbia Pictures
Жанр: драма, биография, история

Режиссёр: Дэвид Финчер
В ролях: Джесси Айзенберг, Эндрю Гарфилд, Джастин Тимберлэйк, Эрми Хаммер, Макс Мингелла, Руни Мара, Брайан Бартер, Дастин Фицсаймонс, Джозеф Маццелло, Патрик Мэпл

Перевод: Профессиональный (полное дублирование), оригинал
Субтитры: русские (форсированные), английские


В фильме рассказывается история создания одной из самых популярных в Интернете социальных сетей — Facebook. Оглушительный успех этой сети среди пользователей по всему миру навсегда изменил жизнь студентов-однокурсников гарвардского университета, которые основали ее в 2004 году и за несколько лет стали самыми молодыми мультимиллионерами в США.


IMDB: 8.30 (48 763) Top 250 #137
КиноПоиск: 8.24224 692 Топ250: 111

Сэмпл


Качество: BDRip 720p
Продолжительность: 02:00:27

Формат: MKV
Видео кодек: H264
Аудио кодек: AC3, DTS
Формат видео: 1280 x 528 (2.40:1), 23.976 fps, AVC [email protected] ~6 286 Kbps, 0.377 bit/pixel
Формат аудио #1: 48.0 KHz, AC-3, 6 ch, ~384 Kbps | Russian
Формат аудио #2: 48.0 KHz, DTS, 6 ch, ~1 536 Kbps | English
Mediainfo:▼General
Complete name : Social Network.2010.BD.Rip.720p.h264.Rus.Eng.mkv
Format : Matroska
File size : 6.88 GiB
Duration : 2h 0mn
Overall bit rate : 8 173 Kbps
Encoded date : UTC 2010-12-15 04:47:54
Writing application : mkvmerge v3.4.0 (Rapunzel) built on May 15 2010 09:38:20
Writing library : libebml v0.8.0 + libmatroska v0.9.0

Video
ID : 1
Format : AVC
Format/Info : Advanced Video Codec
Format profile : [email protected]
Format settings, CABAC : Yes
Format settings, ReFrames : 5 frames
Format_Settings_GOP : M=3, N=16
Muxing mode : Container [email protected]
Codec ID : V_MPEG4/ISO/AVC
Duration : 2h 0mn
Bit rate : 6 116 Kbps
Nominal bit rate : 6 286 Kbps
Width : 1 280 pixels
Height : 528 pixels
Display aspect ratio : 2.40:1
Frame rate : 23.976 fps
Resolution : 8 bits
Colorimetry : 4:2:0
Scan type : Progressive
Bits/(Pixel*Frame) : 0.377
Stream size : 5.15 GiB (75%)
Writing library : x264 core 110 r1820 fdcf2ae
Encoding settings : cabac=1 / ref=5 / deblock=1:0:0 / analyse=0x3:0x133 / me=umh / subme=7 / psy=1 / psy_rd=1.00:0.00 / mixed_ref=1 / me_range=16 / chroma_me=1 / trellis=1 / 8x8dct=1 / cqm=0 / deadzone=21,11 / fast_pskip=1 / chroma_qp_offset=-2 / threads=6 / sliced_threads=0 / nr=0 / decimate=1 / interlaced=0 / constrained_intra=0 / bframes=3 / b_pyramid=2 / b_adapt=2 / b_bias=0 / direct=3 / weightb=1 / open_gop=0 / weightp=2 / keyint=250 / keyint_min=23 / scenecut=40 / intra_refresh=0 / rc=2pass / mbtree=0 / bitrate=6286 / ratetol=1.0 / qcomp=0.60 / qpmin=0 / qpmax=51 / qpstep=4 / cplxblur=20.0 / qblur=0.5 / ip_ratio=1.40 / pb_ratio=1.30 / aq=1:1.00
Language : English

Audio #1
ID : 2
Format : AC-3
Format/Info : Audio Coding 3
Format_Settings_ModeExtension : CM (complete main)
Codec ID : A_AC3
Duration : 2h 0mn
Bit rate mode : Constant
Bit rate : 384 Kbps
Channel(s) : 6 channels
Channel positions : Front: L C R, Side: L R, LFE
Sampling rate : 48.0 KHz
Stream size : 331 MiB (5%)
Title : Dublyazh AC3 5.1 384 kbps
Language : Russian

Audio #2
ID : 3
Format : DTS
Format/Info : Digital Theater Systems
Codec ID : A_DTS
Duration : 2h 0mn
Bit rate mode : Constant
Bit rate : 1 510 Kbps
Channel(s) : 6 channels
Channel positions : Front: L C R, Side: L R, LFE
Sampling rate : 48.0 KHz
Resolution : 24 bits
Stream size : 1.27 GiB (18%)
Title : DTS 5.1 1536 kbps
Language : English

Text #1
ID : 4
Format : UTF-8
Codec ID : S_TEXT/UTF8
Codec ID/Info : UTF-8 Plain Text
Title : Tolko nadpisi
Language : Russian

Text #2
ID : 5
Format : UTF-8
Codec ID : S_TEXT/UTF8
Codec ID/Info : UTF-8 Plain Text
Language : English

Pаздача группы:
a54888b1f566ea1696875e20a3a0edc038619320Социальная сеть / The Social Network (Дэвид Финчер, драма, биография, история, 2010) [BDRip 720p, Дубляж + оригинал] Социальная сеть / The Social Network (Дэвид Финчер, драма, биография, история, 2010) [BDRip 720p, Дубляж + оригинал] " />

Аплоадер: Админ, дата: 15-12-2010, 18:54, торрент скачан: 359 раз

Понравилась раздача? Посмотрите эти:
  • Социальная сеть / The Social Network (Дэвид Финчер, Драма, биография, 2010) ...
  • 42 / 42 (Брайан Хелгеленд, Драма, биография, спорт, 2013) [BDRip 720p, Проф ...
  • Суррогат / The Sessions (Бен Луин, драма, 2012) [BDRip 720p, Профессиональн ...
  • Социальная сеть / The Social Network (Дэвид Финчер / David Fincher, драма, ...
  • Социальная сеть / The Social Network (Дэвид Финчер,драма, биография, истори ...
  • Социальная сеть / The Social Network (Дэвид Финчер / David Fincher, драма, ...
  • Персонаж / Stranger Than Fiction (Марк Форстер, Комедия, драма, фантастика, ...
  • Социальная сеть / The Social Network (Дэвид Финчер, драма, биография, 2010) ...
  • Социальная сеть / The Social Network (Дэвид Финчер, драма, биография, истор ...
  • Король говорит! / The Kings Speech (Том Хупер, драма, биография, история, 2 ...
  • Бобер / The Beaver (Джоди Фостер, драма, 2011) [BDRip 720p, Дубляж + Оригин ...
  • Человек, который изменил всё / Moneyball (Беннетт Миллер, драма, биография, ...
  • [EN] Социальная сеть / The Social Network (Дэвид Финчер , драма, биография, ...
  • Социальная сеть / The Social Network (Дэвид Финчер, драма, биография, истор ...
  • Социальная сеть / The Social Network (Дэвид Финчер, драма, биография, истор ...
  • Социальная сеть / The Social Network (Дэвид Финчер, драма, биография, истор ...
  • Социальная сеть / The Social Network (Дэвид Финчер / David Fincher, драма, ...
  • Социальная сеть / The Social Network (Дэвид Финчер, драма, биография, истор ...
  • Социальная сеть / The Social Network (Дэвид Финчер, драма, биография, истор ...
  • Социальная сеть / The Social Network (Дэвид Финчер, драма, биография, истор ...
  • [EN] Социальная сеть / The Social Network (Дэвид Финчер, драма, биография, ...
  • Социальная сеть / The Social Network (Дэвид Финчер, драма, биография, истор ...
  • Социальная сеть / The Social Network (Дэвид Финчер, драма,биография,история ...
  • Социальная сеть / The Social Network (Дэвид Финчер, драма, биография, исто ...
  • Социальная сеть / The Social Network (Дэвид Финчер, Драма, Биография, Истор ...
  • Информация
    Посетители, находящиеся в группе Гости, не могут оставлять комментарии к данной публикации.