вход на сайт

Имя пользователя :
Пароль :

Восстановление пароля Регистрация
Бросок кобры / G.I. Joe: The Rise of Cobra (Стивен Соммерс, фантастика, боевик, триллер, приключения, 2009) [BDRip 720p, Дубляж + Оригинал]
Рейтинг:
(голосов: 1)



[img]{THEME}/images/logopost.png[/img]



Бросок кобры / G.I. Joe: The Rise of Cobra

«Когда остальные сдаются, они идут до конца»

Страна:США, Чехия
Производство: Paramount Pictures
Год выпуска: 2009
Жанр: фантастика, боевик, триллер, приключения

Режиссер: Стивен Соммерс
В ролях: Чаннинг Татум, Марлон Уайанс, Адевале Акиннуойе-Агбадже, Деннис Куэйд, Кристофер Экклстон, Джозеф Гордон-Левитт, Бён Хон Ли, Рейчел Николс, Рэй Парк, Сиенна Миллер, Джонатан Прайс, Дэвид Мюррэй

Перевод: Профессиональный (полное дублирование) + оригинал
Субтитры: русские

Описание:Базирующееся в Египте высокотехнологичное международное военное подразделение, известное как G.I. Joe, противостоит зловещей корпорации, руководимой знаменитым оружейным бароном.

IMDB: рейтинг 5.90 (34 255)
КиноПоиск: рейтинг6.6469 524

Качество: BDRip[/b]

Продолжительность: 01:57:59

Формат: MKV
Видео кодек: H.264
Аудио кодек:AС3
Видео: 1280x536(2.35:1 ),23.976 кадр/сек, H.264 ~4664 Кбит/сек, 0.27 bit/pixel
Аудио #1: AC3, 448 Кбит/сек, 6 каналов, 48.0 КГц - русский
Аудио #2: AC3, 640 Кбит/сек, 6 каналов, 48.0 КГц - английский

MediaInfo
▼Video
ID : 1
Format : AVC
Format/Info : Advanced Video Codec
Format profile : [email protected]
Format settings, CABAC : Yes
Format settings, ReFrames : 5 frames
Muxing mode : Container [email protected]
Codec ID : V_MPEG4/ISO/AVC
Duration : 1h 57mn
Bit rate : 4 551 Kbps
Nominal bit rate : 4 664 Kbps
Width : 1 280 pixels
Height : 536 pixels
Display aspect ratio : 2.35:1
Frame rate : 23.976 fps
Resolution : 24 bits
Colorimetry : 4:2:0
Scan type : Progressive
Bits/(Pixel*Frame) : 0.277
Stream size : 3.75 GiB (79%)
Writing library : x264 core 77 r1281 3836218
Encoding settings : cabac=1 / ref=5 / deblock=1:0:0 / analyse=0x3:0x133 / me=umh / subme=7 / psy=1 / psy_rd=1.0:0.0 / mixed_ref=1 / me_range=16 / chroma_me=1 / trellis=1 / 8x8dct=1 / cqm=0 / deadzone=21,11 / chroma_qp_offset=-2 / threads=6 / nr=0 / decimate=1 / mbaff=0 / constrained_intra=0 / bframes=3 / b_pyramid=0 / b_adapt=1 / b_bias=0 / direct=1 / wpredb=1 / keyint=250 / keyint_min=25 / scenecut=40 / rc_lookahead=40 / rc=2pass / mbtree=1 / bitrate=4664 / ratetol=1.0 / qcomp=0.60 / qpmin=10 / qpmax=51 / qpstep=4 / cplxblur=20.0 / qblur=0.5 / ip_ratio=1.40 / aq=1:1.00
Language : English

Audio #1
ID : 2
Format : AC-3
Format/Info : Audio Coding 3
Codec ID : A_AC3
Duration : 1h 57mn
Bit rate mode : Constant
Bit rate : 448 Kbps
Channel(s) : 6 channels
Channel positions : Front: L C R, Surround: L R, LFE
Sampling rate : 48.0 KHz
Stream size : 378 MiB (8%)
Language : Russian

Audio #2
ID : 3
Format : AC-3
Format/Info : Audio Coding 3
Codec ID : A_AC3
Duration : 1h 57mn
Bit rate mode : Constant
Bit rate : 640 Kbps
Channel(s) : 6 channels
Channel positions : Front: L C R, Surround: L R, LFE
Sampling rate : 48.0 KHz
Stream size : 540 MiB (11%)
Language : English

Text #1
ID : 4
Format : UTF-8
Codec ID : S_TEXT/UTF8
Codec ID/Info : UTF-8 Plain Text
Language : Russian

Text #2
ID : 5
Format : UTF-8
Codec ID : S_TEXT/UTF8
Codec ID/Info : UTF-8 Plain Text
Language : English

Раздача группы: Наши раздачи

Проверено и Отредактировано: LK - 14/12/2009[/b]


e7648ae335b5a88589700ec3896d27234f14ae6cБросок кобры / G.I. Joe: The Rise of Cobra (Стивен Соммерс, фантастика, боевик, триллер, приключения, 2009) [BDRip 720p, Дубляж + Оригинал] Бросок кобры / G.I. Joe: The Rise of Cobra (Стивен Соммерс, фантастика, боевик, триллер, приключения, 2009) [BDRip 720p, Дубляж + Оригинал] " />

Аплоадер: Админ, дата: 13-12-2009, 23:09, торрент скачан: 359 раз

Понравилась раздача? Посмотрите эти:
  • Бросок кобры / G.I. Joe: The Rise of Cobra (Стивен Соммерс, Фантастика, бое ...
  • Убить по расписанию / Ticking Clock (Эрни Барбараш, фантастика, боевик, три ...
  • Дитя человеческое / Children of Men (Альфонсо Куарон, фантастика, триллер, ...
  • Персонаж / Stranger Than Fiction (Марк Форстер, Комедия, драма, фантастика, ...
  • Бросок кобры / G.I. Joe: The Rise of Cobra (Стивен Соммерс, фантастика, бое ...
  • Команда «А» / The A-Team (Джо Карнахан, боевик, триллер, комедия, приключен ...
  • Вальгалла: Сага о викинге / Valhalla Rising (Николас Виндинг Рёфн, боевик, ...
  • Пристрели их / Shoot Em Up (Майкл Дэвис, боевик, триллер, комедия, криминал ...
  • Бросок кобры / G.I. Joe: The Rise of Cobra (Стивен Соммерс, фантастика, бое ...
  • [3D] Аватар 3D / Avatar 3D (Джеймс Кэмерон / James Cameron, Фантастика, бое ...
  • Социальная сеть / The Social Network (Дэвид Финчер, драма, биография, истор ...
  • Исходный код / Source Code (Дункан Джонс, фантастика, боевик, триллер, 2011 ...
  • Бобер / The Beaver (Джоди Фостер, драма, 2011) [BDRip 720p, Дубляж + Оригин ...
  • Дети шпионов 4D / Spy Kids: All the Time in the World in 4D (Роберт Родриге ...
  • Чаббчаббы спасают Рождество / The Chubbchubbs Save Xmas (Коуди Камерон, мул ...
  • Похищенная / A Lonely Place to Die (Джулиан Джилби, триллер, криминал, прик ...
  • Путешествие на край Вселенной / Journey to the Edge of the Universe (Явар А ...
  • Бросок кобры / G I Joe: The Rise of Cobra (Стивен Соммерс, фантастика, боев ...
  • Бросок кобры / G I Joe: The Rise of Cobra (Стивен Соммерс, фантастика, боев ...
  • Бросок кобры / G I Joe: The Rise of Cobra (Стивен Соммерс, фантастика, боев ...
  • Бросок кобры / G.I. Joe: The Rise of Cobra ( Стивен Соммерс, Фантастика, бо ...
  • Бросок кобры / G.I. Joe: The Rise of Cobra(Стивен Соммерс, Фантастика, бое ...
  • Бегущий по лезвию / Blade Runner (International theatrical cut) (Ридли Скот ...
  • Шерлок Холмс: Игра теней / Sherlock Holmes: A Game of Shadows (Гай Ричи, Бо ...
  • Бросок кобры / G.I. Joe: The Rise of Cobra (Стивен Соммерс, Фантастика, бое ...
  • Информация
    Посетители, находящиеся в группе Гости, не могут оставлять комментарии к данной публикации.