вход на сайт

Имя пользователя :
Пароль :

Восстановление пароля Регистрация
Хорошо быть тихоней / The Perks of Being a Wallflower (Стивен Чбоски, Драма, мелодрама, 2012) [BDRip 720p, Дубляж, Оригинал (английский), Commentary, Sub]
Рейтинг:
(голосов: 1)



[img]{THEME}/images/logopost.png[/img]



Хорошо Быть Тихоней / The Perks Of Being A Wallflower
«Будь фильтром, а не губкой!»


Год выпуска: 2012
Страна: США
Производство: Summit Entertainment, Mr. Mudd
Жанр: Драма, мелодрама

Режиссёр: Стивен Чбоски
В ролях: Логан Лерман, Эмма Уотсон, Эзра Миллер, Дилан МакДермотт, Кейт Уолш, Патрик Де Ледебур, Джонни Симмонс, Брайан Балзерини, Том Крушевски, Нина Добрев

Перевод: Дубляж, Оригинал (английский), Commentary
Субтитры: Russian, English [Full, SDH], Spanish

Описание: История о Чарли, ученике старшей школы в Питтсбурге, стеснительном и непопулярном. На наших глазах Чарли взрослеет, меняется круг его общения, меняется его мнение о мире.

Релиз от:Качество: BDRip 720p |Сэмпл
Продолжительность: 01:42:40


Формат: MKV
Видео кодек: x264
Аудио кодек: DTS, AC3
Видео: 1280x720 (16:9), 23.976 fps, x264 ~15.1 Mbps, 0.683 bit/pixel
Аудио#1: 48 kHz, DTS, 3/2 (L,C,R,l,r) + LFE ch, ~755.00 kbps avg- (Дубляж)
Аудио#2: 48 kHz/16-bit, DTS, 3/2 (L,C,R,l,r) + LFE ch, ~1510.00 kbps avg - (Оригинал)
Аудио#3: 48 kHz, AC3 Dolby Digital, 2/0 (L,R) ch, ~224.00 kbps kbps avg - (Commentary)
Аудио#4: 48 kHz, AC3 Dolby Digital, 2/0 (L,R) ch, ~224.00 kbps kbps avg - (Commentary)

Дата премьеры (мир): 8 сентября 2012
Дата премьеры (РФ): 20 сентября 2012, «West»

MediaInfo ▼General
Unique ID : 237621464195206849879919071976329412567 (0xB2C43AB58502890F8F63BA6D271D7FD7)
Complete name : Horosho.byt.tihonej.2012.D.BDRip.720p.IRONCLUB.mkv
Format : Matroska
Format version : Version 2
File size : 13.0 GiB
Duration : 1h 42mn
Overall bit rate : 18.2 Mbps
Movie name : IRONCLUB
Encoded date : UTC 2013-02-13 13:49:40
Writing application : mkvmerge v5.2.0 (I cant explain) built on Dec 18 2011 18:12:03
Writing library : libebml v1.2.3 + libmatroska v1.3.0

Video
ID : 1
Format : AVC
Format/Info : Advanced Video Codec
Format profile : [email protected]
Format settings, CABAC : Yes
Format settings, ReFrames : 9 frames
Codec ID : V_MPEG4/ISO/AVC
Duration : 1h 42mn
Bit rate : 15.1 Mbps
Width : 1 280 pixels
Height : 720 pixels
Display aspect ratio : 16:9
Frame rate : 23.976 fps
Color space : YUV
Chroma subsampling : 4:2:0
Bit depth : 8 bits
Scan type : Progressive
Bits/(Pixel*Frame) : 0.683
Stream size : 10.8 GiB (83%)
Title : The Perks of Being a Wallflower 2012 720p BluRay x264-EbP
Writing library : x264 core 129 r2245 bc13772
Encoding settings : cabac=1 / ref=9 / deblock=1:-3:-3 / analyse=0x3:0x113 / me=tesa / subme=9 / psy=1 / psy_rd=0.95:0.00 / mixed_ref=1 / me_range=16 / chroma_me=1 / trellis=2 / 8x8dct=1 / cqm=0 / deadzone=21,11 / fast_pskip=0 / chroma_qp_offset=-2 / threads=12 / lookahead_threads=2 / sliced_threads=0 / nr=0 / decimate=0 / interlaced=0 / bluray_compat=0 / constrained_intra=0 / bframes=9 / b_pyramid=2 / b_adapt=2 / b_bias=0 / direct=3 / weightb=1 / open_gop=0 / weightp=2 / keyint=250 / keyint_min=23 / scenecut=40 / intra_refresh=0 / rc=crf / mbtree=0 / crf=16.5 / qcomp=0.80 / qpmin=0 / qpmax=69 / qpstep=4 / ip_ratio=1.40 / pb_ratio=1.30 / aq=1:0.50
Language : English
Default : Yes
Forced : Yes
Matrix coefficients : BT.709-5, BT.1361, IEC 61966-2-4 709, SMPTE RP177

Audio #1
ID : 2
Format : DTS
Format/Info : Digital Theater Systems
Codec ID : A_DTS
Duration : 1h 42mn
Bit rate mode : Constant
Bit rate : 755 Kbps
Channel(s) : 6 channels
Channel positions : Front: L C R, Side: L R, LFE
Sampling rate : 48.0 KHz
Bit depth : 24 bits
Compression mode : Lossy
Stream size : 554 MiB (4%)
Title : DTS 5.1 @ 768 kbps - Dub, R5
Language : Russian
Default : Yes
Forced : Yes

Audio #2
ID : 3
Format : DTS
Format/Info : Digital Theater Systems
Codec ID : A_DTS
Duration : 1h 42mn
Bit rate mode : Constant
Bit rate : 1 510 Kbps
Channel(s) : 6 channels
Channel positions : Front: L C R, Side: L R, LFE
Sampling rate : 48.0 KHz
Bit depth : 24 bits
Compression mode : Lossy
Stream size : 1.08 GiB (8%)
Title : DTS 5.1 @ 1536 kbps
Language : English
Default : No
Forced : No

A
ceb888888d9ae7d5f6bd338826b9f21f63aa990bХорошо быть тихоней / The Perks of Being a Wallflower (Стивен Чбоски, Драма, мелодрама, 2012) [BDRip 720p, Дубляж, Оригинал (английский), Commentary, Sub] Хорошо быть тихоней / The Perks of Being a Wallflower (Стивен Чбоски, Драма, мелодрама, 2012) [BDRip 720p, Дубляж, Оригинал (английский), Commentary, Sub] " />

Аплоадер: Админ, дата: 13-02-2013, 21:26, торрент скачан: 359 раз

Понравилась раздача? Посмотрите эти:
  • Паркер / Parker (Тейлор Хэкфорд, Боевик, триллер, криминал, 2013) [BDRip 7 ...
  • Отверженные / Les Miserables (Том Хупер, Мюзикл, драма, мелодрама, 2012) [B ...
  • Хорошо Быть Тихоней / The Perks Of Being A Wallflower (Стивен Чбоски, Драма ...
  • Хорошо быть тихоней / The Perks of Being a Wallflowe (Стивен Чбоски, драма, ...
  • [iPhone, iPod]Хорошо быть тихоней / The Perks of Being a Wallflower (Стивен ...
  • Хорошо быть тихоней / The Perks of Being a Wallflower (Стивен Чбоски, Драма ...
  • Хорошо быть тихоней / The Perks of Being a Wallflower (Стивен Чбоски, Драма ...
  • Хорошо быть тихоней / The Perks of Being a Wallflower (Стивен Чбоски, Драма ...
  • Хорошо быть тихоней / The Perks of Being a Wallflower (Стивен Чбоски, Драма ...
  • Хорошо быть тихоней / The Perks of Being a Wallflower (Стивен Чбоски / Step ...
  • Хорошо быть тихоней / The Perks of Being a Wallflower (Стивен Чбоски, Драма ...
  • Анна Каренина / Anna Karenina (Джо Райт, Драма, мелодрама, 2012) [BDRip 720 ...
  • Толстяк на ринге / Here Comes the Boom (Фрэнк Корачи, Боевик, комедия, 201 ...
  • Хорошо быть тихоней / The Perks of Being a Wallflower (Стивен Чбоски, драма ...
  • Лоракс / Dr. Seuss The Lorax (Крис Рено, Кайл Балда, Мультфильм, фэнтези, с ...
  • Третий лишний / Ted (Сет МакФарлейн, Фэнтези, комедия, 2012) [BDRip 720p, Д ...
  • Странная жизнь Тимоти Грина / The Odd Life of Timothy Green (Питер Хеджес, ...
  • Эволюция Борна / The Bourne Legacy (Тони Гилрой, Боевик, триллер, детектив, ...
  • [Трейлер #1] Трудности быть изгоем / The Perks of Being a Wallflower (Стиве ...
  • [Трейлер] Хорошо быть тихоней / The Perks of Being a Wallflower (Стивен Чбо ...
  • Информация
    Посетители, находящиеся в группе Гости, не могут оставлять комментарии к данной публикации.