вход на сайт

Имя пользователя :
Пароль :

Восстановление пароля Регистрация
Заложница 2 [Театральная версия] / Taken 2 [Theatrical Cut] (Оливье Мегатон, Боевик, триллер, криминал, 2012) [BDRip 720p, Дубляж, Ukrainian, Оригинал (английский), Sub]
Рейтинг:
(голосов: 1)



[img]{THEME}/images/logopost.png[/img]



Заложница 2 [Театральная версия] / Taken 2 [Theatrical Cut]
«First they took his daughter. Now theyre coming for him.»


Год выпуска: 2012
Страна: Франция
Производство: Canal+ [fr], Grive Productions, M6 Films
Жанр: Боевик, триллер, криминал

Режиссёр: Оливье Мегатон
В ролях: Лиам Нисон, Мэгги Грэйс, Фамке Янссен, Лиленд Орсер, Джон Грайз, Д.Б. Суини, Люк Граймс, Раде Шербеджия, Кеворк Маликян, Ален Фиглаж

Перевод: Дубляж, Ukrainian, Оригинал (английский)
Субтитры: Russian, English [Forced, SDH]

Описание: Брайану Миллсу придется расхлебывать последствия своих действий. Спасая свою дочь, он убил главаря банды, у которого — сюрприз! — есть отец по имени Мурад. Мурад жаждет отмщения и описывается как человек, отдающий приказы, но сам никогда никому не подчиняющийся. Мурад берет в заложники Миллса с супругой, и тут уже Ким Миллс нужно будет спасать своих родителей.



Качество: BDRip 720p|Сэмпл
Продолжительность: 01:32:07


Формат: MKV
Видео кодек: x264
Аудио кодек: AC3, DTS
Видео: 1280x536 (2:40:1), 23.976 fps, x264 ~9 000 kbps avg, 0.527 bit/pixel
Аудио#1: 48 kHz/24-bit, DTS, 3/2 (L,C,R,l,r) + LFE ch, ~755.00 kbps avg - (Дубляж)
Аудио#2: 48 kHz, AC3 Dolby Digital, 3/2 (L,C,R,l,r) + LFE ch, ~384.00 kbps avg- (Ukrainian "MVO")
Аудио#3: 48 kHz/16-bit, DTS, 3/2 (L,C,R,l,r) + LFE ch, ~1510.00 kbps avg - (Оригинал)

Дата премьеры (мир): 7 сентября 2012
Дата премьеры (РФ): 4 октября 2012, «Централ Партнершип»

MediaInfo ▼General
Unique ID : 179212666312624134890646775358541588173 (0x86D31AA2CA89C785A8284E3F30C0E6CD)
Complete name : Taken.2.2012.D.BDRip.720p.IRONCLUB.mkv
Format : Matroska
Format version : Version 2
File size : 7.49 GiB
Duration : 1h 32mn
Overall bit rate : 11.6 Mbps
Movie name : IRONCLUB
Encoded date : UTC 2013-02-07 10:17:51
Writing application : mkvmerge v5.2.0 (I cant explain) built on Dec 18 2011 18:12:03
Writing library : libebml v1.2.3 + libmatroska v1.3.0

Video
ID : 1
Format : AVC
Format/Info : Advanced Video Codec
Format profile : [email protected]
Format settings, CABAC : Yes
Format settings, ReFrames : 12 frames
Codec ID : V_MPEG4/ISO/AVC
Duration : 1h 32mn
Bit rate : 9 000 Kbps
Width : 1 280 pixels
Height : 536 pixels
Display aspect ratio : 2.40:1
Frame rate : 23.976 fps
Color space : YUV
Chroma subsampling : 4:2:0
Bit depth : 8 bits
Scan type : Progressive
Bits/(Pixel*Frame) : 0.547
Stream size : 5.64 GiB (75%)
Title : Taken 2 2012 Theatrical Cut 720p BluRay DTS x264-IRONCLUB
Writing library : x264 core 129 r2230kMod 1cffe9f
Encoding settings : cabac=1 / ref=12 / deblock=1:-3:-3 / analyse=0x3:0x113 / me=umh / subme=11 / psy=1 / fade_compensate=0.00 / psy_rd=1.10:0.05 / mixed_ref=1 / me_range=48 / chroma_me=1 / trellis=2 / 8x8dct=1 / cqm=0 / deadzone=21,11 / fast_pskip=0 / chroma_qp_offset=-3 / threads=12 / lookahead_threads=2 / sliced_threads=0 / nr=0 / decimate=1 / interlaced=0 / bluray_compat=0 / constrained_intra=0 / bframes=7 / b_pyramid=2 / b_adapt=2 / b_bias=0 / direct=3 / weightb=1 / open_gop=0 / weightp=2 / keyint=250 / keyint_min=23 / scenecut=40 / intra_refresh=0 / rc_lookahead=60 / rc=2pass / mbtree=0 / bitrate=9000 / ratetol=1.0 / qcomp=0.70 / qpmin=0 / qpmax=69 / qpstep=4 / cplxblur=20.0 / qblur=0.5 / vbv_maxrate=50000 / vbv_bufsize=62500 / nal_hrd=none / ip_ratio=1.25 / pb_ratio=1.25 / aq=1:0.85
Language : English
Default : Yes
Forced : Yes
Matrix coefficients : BT.709-5, BT.1361, IEC 61966-2-4 709, SMPTE RP177

Audio #1
ID : 2
Format : DTS
Format/Info : Digital Theater Systems
Codec ID : A_DTS
Duration : 1h 32mn
Bit rate mode : Constant
Bit rate : 755 Kbps
Channel(s) : 6 channels
Channel positions : Front: L C R, Side: L R, LFE
Sampling rate : 48.0 KHz
Bit depth : 24 bits
Compression mode : Lossy
Stream size : 497 MiB (6%)
Title : DTS 5.1 @ 768 kbps - Dub, BD RUS
Language : Russian
Default : Yes
Forced : Yes
&
6714a9e46db35566dd9be8b823f66829b5450ff1Заложница 2 [Театральная версия] / Taken 2 [Theatrical Cut] (Оливье Мегатон, Боевик, триллер, криминал, 2012) [BDRip 720p, Дубляж, Ukrainian, Оригинал (английский), Sub] Заложница 2 [Театральная версия] / Taken 2 [Theatrical Cut] (Оливье Мегатон, Боевик, триллер, криминал, 2012) [BDRip 720p, Дубляж, Ukrainian, Оригинал (английский), Sub] " />

Аплоадер: Админ, дата: 7-02-2013, 20:51, торрент скачан: 359 раз

Понравилась раздача? Посмотрите эти:
  • Заложница 2 [Театральная версия] / Taken 2 [Theatrical Cut] (Оливье Мегатон ...
  • Заложница 2 / Taken 2 (Оливье Мегатон, боевик, триллер, криминал, 2012) [32 ...
  • Железный Кулак [Театральная версия] / The Man with the Iron Fists [Theatric ...
  • Жизнь Пи / Life Of Pi (Энг Ли, Драма, приключения, 2012) [BDRip 720p, Профе ...
  • [iPhone, iPod] Заложница 2 / Taken 2 (Оливье Мегатон, боевик, триллер, крим ...
  • Заложница 2 / Taken 2 (Оливье Мегатон, боевик, триллер, криминал, 2012) [HD ...
  • Заложница 2 [Театральная версия] / Taken 2 [Theatrical Cut] (Оливье Мегатон ...
  • Заложница 2 [Театральная версия] / Taken 2 [Theatrical Cut] (Оливье Мегатон ...
  • Заложница 2 [Театральная версия] / Taken 2 [Theatrical Cut] (Оливье Мегатон ...
  • Заложница 2 [Расширенная версия] / Taken 2 [Unrated] (Оливье Мегатон, боеви ...
  • Заложница 2 [Театральная версия] / Taken 2 [Theatrical Cut] (Оливье Мегатон ...
  • Толстяк на ринге / Here Comes the Boom (Фрэнк Корачи, Боевик, комедия, 201 ...
  • Толстяк на ринге / Here Comes the Boom (Фрэнк Корачи, Боевик, комедия, 201 ...
  • Заложница 2 [Театральная версия] / Taken 2 [Theatrical Cut] (Оливье Мегатон ...
  • Заложница 2 [2в1: Театральная и Расширенная версии] / Taken 2 [2in1: Theatr ...
  • Заложница 2 | Театральная версия / Taken 2 | Theatrical Cut (Оливье Мегатон ...
  • Заложница 2 | Театральная версия / Taken 2 | Theatrical Cut (Оливье Мегатон ...
  • Закон доблести / Act of Valor (Майк МакКой, Скотт Во, боевик, триллер, прик ...
  • «Весёлые» каникулы / Get the Gringo (Адриан Грюнберг, Боевик, комедия, 2012 ...
  • Ворон / The Raven (Джеймс МакТиг, Триллер, детектив, 2012) [BDRip 720p, Дуб ...
  • Белоснежка и охотник [Театральная версия] / Snow White and the Huntsman [Th ...
  • Медальон / Stolen (Саймон Уэст, Боевик, триллер, 2012) [BDRip 720p, Дубляж, ...
  • Эволюция Борна / The Bourne Legacy (Тони Гилрой, Боевик, триллер, детектив, ...
  • Я, Алекс Кросс / Alex Cross (Роб Коэн, Боевик, триллер, криминал, детектив, ...
  • [Трейлер] Заложница 2 / Taken 2 (Оливье Мегатон, боевик, триллер, драма, кр ...
  • Информация
    Посетители, находящиеся в группе Гости, не могут оставлять комментарии к данной публикации.