вход на сайт

Имя пользователя :
Пароль :

Восстановление пароля Регистрация
Падение последней империи: 1911 / Xinhai geming: 1911 (Чжан Ли, Джеки Чан, Боевик, Драма, Приключения, Военный, История, 2011) [BDRip 720p, многоголосый + Original (chi) + eng + Sub (rus, chi, eng)]
Рейтинг:
(голосов: 1)



[img]{THEME}/images/logopost.png[/img]



Падение последней империи: 1911 / Xinhai geming: 1911
«Великая Китайская революция»

Год выпуска: 2011
Страна: Китай, Гонконг
Производство: Beijing Alnair Culture & Media
Жанр: боевик, драма, приключения, военный, история

Режиссёр: Ли Чжан, Джеки Чан
В ролях: Джеки Чан, Ли Бинбин, Уинстон Чао, Джоан Чэнь, Джейси Чан, Ху Гэ, Минг Ху, Хуанг Жи Жонг, Цзян Вэньли

Перевод: Профессиональный (многоголосый закадровый) |Лицензия|
Субтитры: русский, китайский, английский

Описание: Китай, 1911 г. Период политической нестабильности и революционных настроений в государстве. На фоне общей неразберихи и неопределённости, некто Сунь Ятсен поднимает восстание и направляет мощь своих войск с одной единственной целью — свергнуть правящую династию Цин и установить новый, социально направленный режим управления республикой.Качество: BDRip (720p)
Продолжительность: 01:39:12

Формат: MKV
Видео кодек: AVC
Аудио кодек: AC3, DTS
Видео: 1280x544 (2.35:1), 23.976 fps, H264 ~4993 kbps avg, 0.299 bit/pixel
Аудио #1: 48 kHz, AC3 Dolby Digital, 3/2 (L,C,R,l,r) + LFE ch, ~448.00 kbps avg |Многоголосый закадровый|
Аудио #2: 48 kHz, DTS, 3/2 (L,C,R,l,r) + LFE ch, ~1510.00 kbps avg |Оригинал|
Аудио #3: 48 kHz, AC3 Dolby Digital, 2/0 (L,R) ch, ~224 kbps |Китайский, комментарий|
Аудио #4: 48 kHz, DTS, 3/2 (L,C,R,l,r) + LFE ch, ~1510.00 kbps avg |Английский, дубляж|
Аудио #5: 48 kHz, AC3 Dolby Digital, 2/0 (L,R) ch, ~224 kbps |Английский, комментарий|

"MediaInfo" ▼TextGeneral
Unique ID : 239291098371760522772083091422792146876 (0xB405CA0790E7AC28914BC826DF385FBC)
Complete name : 1911.2011.P.BDRip.720p_[YouTracker]_by_avproh.mkv
Format : Matroska
Format version : Version 2
File size : 6.24 GiB
Duration : 1h 39mn
Overall bit rate : 9 010 Kbps
Encoded date : UTC 2012-08-30 19:05:45
Writing application : mkvmerge v5.6.0 (Kenya Kane) built on May 27 2012 16:44:04
Writing library : libebml v1.2.3 + libmatroska v1.3.0
Video
ID : 1
Format : AVC
Format/Info : Advanced Video Codec
Format profile : [email protected]
Format settings, CABAC : Yes
Format settings, ReFrames : 8 frames
Codec ID : V_MPEG4/ISO/AVC
Duration : 1h 39mn
Bit rate : 4 993 Kbps
Width : 1 280 pixels
Height : 544 pixels
Display aspect ratio : 2.35:1
Frame rate : 23.976 fps
Color space : YUV
Chroma subsampling : 4:2:0
Bit depth : 8 bits
Scan type : Progressive
Bits/(Pixel*Frame) : 0.299
Stream size : 3.41 GiB (55%)
Writing library : x264 core 119 r2106 07efeb4
Encoding settings : cabac=1 / ref=8 / deblock=1:-3:-3 / analyse=0x3:0x113 / me=umh / subme=10 / psy=1 / psy_rd=1.05:0.10 / mixed_ref=1 / me_range=32 / chroma_me=1 / trellis=2 / 8x8dct=1 / cqm=0 / deadzone=21,11 / fast_pskip=0 / chroma_qp_offset=-3 / threads=6 / sliced_threads=0 / nr=0 / decimate=1 / interlaced=0 / bluray_compat=0 / constrained_intra=0 / bframes=6 / b_pyramid=2 / b_adapt=2 / b_bias=0 / direct=3 / weightb=1 / open_gop=0 / weightp=2 / keyint=250 / keyint_min=25 / scenecut=40 / intra_refresh=0 / rc_lookahead=40 / rc=2pass / mbtree=1 / bitrate=4993 / ratetol=1.0 / qcomp=0.60 / qpmin=10 / qpmax=51 / qpstep=4 / cplxblur=20.0 / qblur=0.5 / vbv_maxrate=50000 / vbv_bufsize=50000 / nal_hrd=none / ip_ratio=1.40 / aq=1:0.80
Language : English
Default : Yes
Forced : No
Audio #1
ID : 2
Format : AC-3
Format/Info : Audio Coding 3
Mode extension : CM (complete main)
Codec ID : A_AC3
Duration : 1h 39mn
Bit rate mode : Constant
Bit rate : 448 Kbps
Channel(s) : 6 channels
Channel positions : Front: L C R, Side: L R, LFE
Sampling rate : 48.0 KHz
Bit depth : 16 bits
Compression mode : Lossy
Stream size : 318 MiB (5%)
Language : Russian
Default : Yes
Forced : No
Audio #2
ID : 3
Format : DTS
Format/Info : Digital Theater Systems
Codec ID : A_DTS
Duration : 1h 39mn
Bit rate mode : Constant
Bit rate : 1 510 Kbps
Channel(s) : 6 channels
Channel positions : Front: L C R, Side: L R, LFE
Sampling rate : 48.0 KHz
Bit depth : 16 bits
Compression mode : Lossy
Stream size : 1.05 GiB (17%)
Language : Chinese
Default
3542ca55ff2b8c09f45e5af0721ffe02943c3025Падение последней империи: 1911 / Xinhai geming: 1911 (Чжан Ли, Джеки Чан, Боевик, Драма, Приключения, Военный, История, 2011) [BDRip 720p, многоголосый + Original (chi) + eng + Sub (rus, chi, eng)] Падение последней империи: 1911 / Xinhai geming: 1911 (Чжан Ли, Джеки Чан, Боевик, Драма, Приключения, Военный, История, 2011) [BDRip 720p, многоголосый + Original (chi) + eng + Sub (rus, chi, eng)] " />

Аплоадер: Админ, дата: 30-01-2013, 20:25, торрент скачан: 359 раз

Понравилась раздача? Посмотрите эти:
  • Сезон убийц / Killing Season (Марк Стивен Джонсон, триллер, драма, боевик, ...
  • Погнали! / Getaway (Кортни Соломон, боевик, криминал, 2013) [BDRip 720p, Пр ...
  • 42 / 42 (Брайан Хелгеленд, Драма, биография, спорт, 2013) [BDRip 720p, Проф ...
  • Гость / The Caller (Мэттью Паркхилл, триллер, детектив, 2011) [BDRip 720p, ...
  • 1911: Падение последней империи / Xinhai geming (Джеки Чан, Чжан Ли, боевик ...
  • Цветы войны / Jin líng shí san chai (Чжан Имоу, драма, военный, история, 20 ...
  • Центурион / Centurion (Нил Маршалл / Neil Marshall, Боевик, триллер, драма, ...
  • Падение последней империи: 1911 / Xinhai geming: 1911 (Чжан Ли, Джеки Чан, ...
  • Дети шпионов 4D / Spy Kids: All the Time in the World in 4D (Роберт Родриге ...
  • Восстание планеты обезьян / Rise of the Planet of the Apes (Руперт Уайатт, ...
  • Рыжий пес / Red Dog (Крив Стендерс, драма, комедия, семейный, 2011) [BDRip ...
  • Закон доблести / Act of Valor (Майк МакКой, Скотт Во, боевик, триллер, прик ...
  • «Весёлые» каникулы / Get the Gringo (Адриан Грюнберг, Боевик, комедия, 2012 ...
  • Ворон / The Raven (Джеймс МакТиг, Триллер, детектив, 2012) [BDRip 720p, Дуб ...
  • Цветы войны / Jin líng shí san chai (Чжан Имоу, драма, военный, история, 20 ...
  • Mylene Farmer / Du Temps [2011, Pop, HDTVRip]
  • 1911 / Xinhai geming (Джеки Чан, Чжан Ли, боевик, драма, приключения, военн ...
  • 1911 / Xinhai geming (Джеки Чан, Чжан Ли, боевик, драма, приключения, военн ...
  • 1911: Падение последней империи / Xinhai geming (Джеки Чан, Чжан Ли, Боевик ...
  • 1911: Падение последней империи / Xinhai geming (Джеки Чан, боевик, драма, ...
  • Информация
    Посетители, находящиеся в группе Гости, не могут оставлять комментарии к данной публикации.