вход на сайт

Имя пользователя :
Пароль :

Восстановление пароля Регистрация
Клик: С пультом по жизни / Click (Фрэнк Корачи, Фэнтези, драма, мелодрама, комедия, 2006) [BDRip 1080p, Профессиональный (полное дублирование) + Профессиональный (многоголосый,закадровый) + Оригинал (Английский) + SUB]
Рейтинг:
(голосов: 1)



[img]{THEME}/images/logopost.png[/img]



Клик: С пультом по жизни / Click

«Представьте, что у вас появился уникальный пульт... Которым можно изменить всю вашу жизнь?»

Год выпуска: 2006
Страна: США
Производство: Columbia Pictures Corporation
Жанр: Фэнтези, драма, мелодрама, комедия

Режиссёр: Фрэнк Корачи
В ролях: Адам Сэндлер, Кейт Бэкинсейл, Кристофер Уокен, Дэвид Хэсселхофф, Генри Уинклер, Джули Кавнер, Шон Остин, Джозеф Кэстэнтон, Джона Хилл, Джейк Хоффман

Перевод: Профессиональный (полное дублирование) + Профессиональный (многоголосый,закадровый) + Оригинал (Английский)
Озвучка: Неизвестно
Субтитры:Русские,Английские [полные, UTF-8]

Описание
Архитектору-трудоголику попадает в руки пульт дистанционного управления, с помощью которого можно прокручивать жизненные ситуации вперед или назад. Но техника есть техника — у нее всегда сюрприз в запасе. Накопив собственную память, пульт сам начинает управлять скоростью перемотки и выбором момента жизни. Только теперь герой понимает, как неверно он использовал время…



Доп. информация
Премьеры ▼премьера (мир)22 июня 2006
премьера (РФ)3 августа 2006, «Каскад»
релиз на Blu-Ray 2 июля 2009, «Columbia/Sony»

Рейтинг MPAA ▼
Детям до 13 лет просмотр не желателен
Mediainfo ▼TextGeneral
Unique ID : 202762889352400769330092560130126529084 (0x988AB6470944A42BBEDA91D10216423C)
Complete name : D:фильмыKlik.s.puljtom.po.gizni.2006.BDRip.1080p.mkv
Format : Matroska
Format version : Version 4 / Version 2
File size : 9.96 GiB
Duration : 1h 47mn
Overall bit rate : 13.3 Mbps
Movie name : Клик: С пультом по жизни / Click / 2006 / BDRip -- STarankov
Encoded date : UTC 2010-02-22 21:41:31
Writing application : mkvmerge v5.9.0 (On The Loose) built on Dec 9 2012 15:37:01
Writing library : libebml v1.3.0 + libmatroska v1.4.0

Video
ID : 1
Format : AVC
Format/Info : Advanced Video Codec
Format profile : [email protected]
Format settings, CABAC : Yes
Format settings, ReFrames : 4 frames
Codec ID : V_MPEG4/ISO/AVC
Duration : 1h 47mn
Bit rate : 11.0 Mbps
Width : 1 920 pixels
Height : 1 040 pixels
Display aspect ratio : 16:9
Frame rate : 23.976 fps
Color space : YUV
Chroma subsampling : 4:2:0
Bit depth : 8 bits
Scan type : Progressive
Bits/(Pixel*Frame) : 0.229
Stream size : 8.23 GiB (83%)
Writing library : x264 core 129 r2230 1cffe9f
Encoding settings : cabac=1 / ref=4 / deblock=1:-1:-1 / analyse=0x3:0x113 / me=umh / subme=9 / psy=1 / psy_rd=1.00:0.15 / mixed_ref=1 / me_range=24 / chroma_me=1 / trellis=2 / 8x8dct=1 / cqm=0 / deadzone=21,11 / fast_pskip=1 / chroma_qp_offset=-3 / threads=6 / lookahead_threads=1 / sliced_threads=0 / nr=0 / decimate=1 / interlaced=0 / bluray_compat=0 / constrained_intra=0 / bframes=8 / b_pyramid=2 / b_adapt=2 / b_bias=0 / direct=1 / weightb=1 / open_gop=0 / weightp=2 / keyint=230 / keyint_min=23 / scenecut=40 / intra_refresh=0 / rc=crf / mbtree=0 / crf=21.0 / qcomp=0.60 / qpmin=0 / qpmax=69 / qpstep=4 / ip_ratio=1.40 / pb_ratio=1.30 / aq=1:1.00
Language : English
Default : Yes
Forced : No

Audio #1
ID : 2
Format : AC-3
Format/Info : Audio Coding 3
Mode extension : CM (complete main)
Codec ID : A_AC3
Duration : 1h 47mn
Bit rate mode : Constant
Bit rate : 640 Kbps
Channel(s) : 6 channels
Channel positions : Front: L C R, Side: L R, LFE
Sampling rate : 48.0 KHz
Bit depth : 16 bits
Compression mode : Lossy
Stream size : 492 MiB (5%)
Title : DUB
Language : Russian
Default : Yes
Forced : No

Audio #2
ID : 3
Format : DTS
Format/Info : Digital Theater Systems
Codec ID : A_DTS
Duration : 1h 47mn
Bit rate mode : Constant
Bit rate : 755 Kbps
Channel(s) : 6 channels
Channel positions : Front: L C R, Side: L R, LFE
Sampling rate : 48.0 KHz
Bit depth : 24 bits
Compression mode : Lossy
Delay relative to video : 2ms
Stream size : 580 MiB (6%)
Title : MVO (Superbit)
Language : Russian
Default : No
Forced : No

Audio #3
ID : 4
Format : AC-3
Format/Info : A
7b70489b79451db5faf2505043aa52f38709d72cКлик: С пультом по жизни / Click (Фрэнк Корачи, Фэнтези, драма, мелодрама, комедия, 2006) [BDRip 1080p, Профессиональный (полное дублирование) + Профессиональный (многоголосый,закадровый) + Оригинал (Английский) + SUB] Клик: С пультом по жизни / Click (Фрэнк Корачи, Фэнтези, драма, мелодрама, комедия, 2006) [BDRip 1080p, Профессиональный (полное дублирование) + Профессиональный (многоголосый,закадровый) + Оригинал (Английский) + SUB] " />

Аплоадер: Админ, дата: 27-02-2013, 12:58, торрент скачан: 359 раз

Понравилась раздача? Посмотрите эти:
  • Бэндслэм / Bandslam (Тодд Графф,Комедия, Мелодрама, 2009) [BDRip 1080p, Про ...
  • Пастырь / Priest (Скотт Чарльз Стюарт, ужасы, фантастика, боевик, триллер, ...
  • Клик: с пультом по жизни / Click (Фрэнк Корачи, Фэнтези, драма, мелодрама, ...
  • Жизнь Пи / Life Of Pi (Энг Ли, Драма, приключения, 2012) [BDRip 720p, Профе ...
  • Жизнь Пи / Life Of Pi (Энг Ли, Драма, приключения, 2012) [BDRip 1080p, Проф ...
  • Толстяк на ринге / Here Comes the Boom (Фрэнк Корачи, Боевик, комедия, 201 ...
  • Толстяк на ринге / Here Comes the Boom (Фрэнк Корачи, Боевик, комедия, 201 ...
  • Клик - с пультом по жизни (Click)(DVDRip ~ 1,4Gb)(2006)
  • Клик: С пультом по жизни / Click (Фрэнк Корачи, фэнтези, драма, мелодрама, ...
  • Мой парень из зоопарка / Zookeeper (Фрэнк Корачи, мелодрама, комедия, семей ...
  • Персонаж / Stranger Than Fiction (Марк Форстер, Комедия, драма, фантастика, ...
  • Клик: С пультом по жизни / Click (Фрэнк Корачи, Комедия, драма, мелодрама, ...
  • Второй шанс / Gridiron Gang (Фил Джоану / Phil Joanou, драма, криминал, спо ...
  • Мой парень из зоопарка / Zookeeper (Фрэнк Корачи, мелодрама, комедия, семей ...
  • Слова / The Words (Брайан Клагман, Ли Стернтал, Драма, мелодрама, 2012) [BD ...
  • Клик: С пультом по жизни / Click (Фрэнк Корачи, Комедия, 2006) [HDRip, Дубл ...
  • Клик: С пультом по жизни / Click (Фрэнк Корачи, 2006, Комедия,Фэнтези,Драма ...
  • Клик: С пультом по жизни / Click (Фрэнк Корачи, комедия, 2006) [BDRip 720p, ...
  • Клик: С пультом по жизни / Click (Фрэнк Корачи ,фэнтези, комедия, драма, 20 ...
  • Клик: С пультом по жизни / Click (Фрэнк Корачи / Frank Coraci, фэнтези, дра ...
  • Информация
    Посетители, находящиеся в группе Гости, не могут оставлять комментарии к данной публикации.