вход на сайт

Имя пользователя :
Пароль :

Восстановление пароля Регистрация
Сайлент Хилл 2 / Silent Hill: Revelation 3D (Майкл Дж. Бассетт, ужасы, триллер, детектив, 2012) [BDRip 1080p, Дублированный (Русский, Украинский) + Оригинал + SUB]
Рейтинг:
(голосов: 1)



[img]{THEME}/images/logopost.png[/img]



Сайлент Хилл 2 / Silent Hill: Revelation 3D
«В этот Хэллоуин 3D путешествие в ад»
Год выпуска: 2012
Страна: Франция, США, Канада
Производство: Anibrain Digital Technologies , Davis-Films , Konami
Жанр: ужасы, триллер, детектив

Режиссёр: Майкл Дж. Бассетт | Michael J. Bassett
В ролях: делейд Клеменс, Кит Харингтон, Дебора Кара Ангер, Мартин Донован, Малкольм МакДауэлл,Кэрри-Энн Мосс, Шон Бин, Рада Митчелл, Роберто Кампанелла, Эрин Питт

Перевод: Профессиональный (полнное дублирование) - Русский + Профессиональный (полнное дублирование) - Украинский + Оригинал (Английский)
Субтитры: softsub (SRT) |Russian, English, Spanish

Описание:
Хизер терзается ночными кошмарами с одиннадцатилетнего возраста и вынуждена со своим отцом постоянно менять место жительства, скрываясь от таинственных сил. Накануне своего восемнадцатого дня рождения Хизер, вернувшись домой, обнаруживает, что её отец исчез. Единственное, что она нашла дома — нарисованный на стене оккультный символ с надписью «отправляйся в Сайлент Хилл».



Дата премьеры (мир): 25 октября 2012
Дата премьеры (РФ): 25 октября 2012, «West»
Релиз на DVD: 26 марта 2013, «West Video»
Релиз на Blu-Ray: 26 марта 2013, «West Video»
Качество: BDRip 1080р
Продолжительность: 01:34:46

Формат: MKV
Видео кодек: H.264
Аудио кодек: DTS, AC3
Видео: 1920x800 (2,40:1), 23,976 fps, H.264 ~9 976 kbps avg, 0.271 bit/pixel
Аудио #1: 48 kHz, DTS, 3/2 (L,C,R,l,r) + LFE ch, ~768.00 kbps avg | Профессиональный (полнное дублирование) - Русский
Аудио #2: 48 kHz, AC3, 3/2 (L,C,R,l,r) + LFE ch, ~384.00 kbps avg | Профессиональный (полнное дублирование) - Украинский
Аудио #3: 48 kHz, DTS, 3/2 (L,C,R,l,r) + LFE ch, ~1536.00 kbps avg | Оригинал (Английский)
MediaInfo ▼General
Unique ID : 231631629344458149666305097314167094192 (0xAE42A10CD6FCC0A0B880D08F2022FBB0)
Complete name : Sajlent.Hill.2.2012.D.BDRip.1080p.IRONCLUB.mkv
Format : Matroska
Format version : Version 2
File size : 8.53 GiB
Duration : 1h 34mn
Overall bit rate : 12.9 Mbps
Movie name : IRONCLUB
Encoded date : UTC 2013-03-07 19:05:34
Writing application : mkvmerge v5.2.0 (I cant explain) built on Dec 18 2011 18:12:03
Writing library : libebml v1.2.3 + libmatroska v1.3.0

Video
ID : 1
Format : AVC
Format/Info : Advanced Video Codec
Format profile : [email protected]
Format settings, CABAC : Yes
Format settings, ReFrames : 5 frames
Codec ID : V_MPEG4/ISO/AVC
Duration : 1h 34mn
Bit rate : 9 976 Kbps
Width : 1 920 pixels
Height : 800 pixels
Display aspect ratio : 2.40:1
Frame rate : 23.976 fps
Color space : YUV
Chroma subsampling : 4:2:0
Bit depth : 8 bits
Scan type : Progressive
Bits/(Pixel*Frame) : 0.271
Stream size : 6.60 GiB (77%)
Title : Silent.Hill.Revelation.2012.1080p.BluRay.DTS.x264-NTb
Writing library : x264 core 129 r2245 bc13772
Encoding settings : cabac=1 / ref=5 / deblock=1:-3:-3 / analyse=0x3:0x133 / me=umh / subme=10 / psy=1 / psy_rd=1.05:0.00 / mixed_ref=1 / me_range=48 / chroma_me=1 / trellis=2 / 8x8dct=1 / cqm=0 / deadzone=21,11 / fast_pskip=0 / chroma_qp_offset=-2 / threads=12 / lookahead_threads=2 / sliced_threads=0 / nr=0 / decimate=1 / interlaced=0 / bluray_compat=0 / constrained_intra=0 / bframes=7 / b_pyramid=2 / b_adapt=2 / b_bias=0 / direct=3 / weightb=1 / open_gop=0 / weightp=2 / keyint=250 / keyint_min=23 / scenecut=40 / intra_refresh=0 / rc=crf / mbtree=0 / crf=16.8 / qcomp=0.60 / qpmin=0 / qpmax=69 / qpstep=4 / ip_ratio=1.40 / pb_ratio=1.30 / aq=1:0.70
Language : English
Default : Yes
Forced : Yes

Audio #1
ID : 2
Format : DTS
Format/Info : Digital Theater Systems
Codec ID : A_DTS
Duration : 1h 34mn
Bit rate mode : Constant
Bit rate : 755 Kbps
Channel(s) : 6 channels
Channel positions : Front: L C R, Side: L R, LFE
Sampling rate : 48.0 KHz
Bit depth : 24 bits
Compression mode : Lossy
Stream size : 512 MiB (6%)
Title : DTS 5.1 @ 768 kbps - Dub, R5
Language : Russian
Default : Yes
Forced : Yes

Audio #2
ID : 3
Format : AC-3
Format/Info : Audio Coding 3
Mode exte
300c16967261d581b4721fc8729c7156b813c5f9Сайлент Хилл 2 / Silent Hill: Revelation 3D (Майкл Дж. Бассетт, ужасы, триллер, детектив, 2012) [BDRip 1080p, Дублированный (Русский, Украинский) + Оригинал + SUB] Сайлент Хилл 2 / Silent Hill: Revelation 3D (Майкл Дж. Бассетт, ужасы, триллер, детектив, 2012) [BDRip 1080p, Дублированный (Русский, Украинский) + Оригинал + SUB] " />

Аплоадер: Админ, дата: 8-03-2013, 04:15, торрент скачан: 359 раз

Понравилась раздача? Посмотрите эти:
  • Сайлент Хилл 2 / Silent Hill: Revelation 3D (Майкл Дж. Бассетт, Ужасы, трил ...
  • Сайлент Хилл 2 / Silent Hill: Revelation 3D (Майкл Дж. Бассетт, Ужасы, трил ...
  • Сайлент Хилл 2 / Silent Hill: Revelation 3D (Майкл Дж. Бассетт, Ужасы, трил ...
  • Сайлент Хилл 2 / Silent Hill: Revelation 3D (Майкл Дж. Бассетт, Ужасы, трил ...
  • [3D] Сайлент Хилл 2 / Silent Hill: Revelation 3D (Майкл Дж. Бассетт, Ужасы, ...
  • Жизнь Пи / Life Of Pi (Энг Ли, Драма, приключения, 2012) [BDRip 1080p, Проф ...
  • Сайлент Хилл 2 / Silent Hill: Revelation 3D (Майкл Дж. Бассетт, ужасы, трил ...
  • [iPhone, iPod]Сайлент Хилл 2 / Silent Hill: Revelation 3D (Майкл Дж. Бассет ...
  • Сайлент Хилл 2 / Silent Hill: Revelation 3D (Майкл Дж. Бассетт, ужасы, трил ...
  • Сайлент Хилл 2 / Silent Hill: Revelation 3D (Майкл Дж. Бассетт, ужасы, трил ...
  • Экипаж / Flight (Роберт Земекис, драма, 2012) [BDRip 1080p, Профессиональны ...
  • [3D] Сайлент Хилл 2 3D трейлер / Silent Hill: Revelation 3D trailer (Майкл ...
  • Сайлент Хилл / Silent Hill (Кристоф Ганс, ужасы, фэнтези, триллер, драма, д ...
  • Сайлент Хилл / Silent Hill (Кристоф Ганс, Ужасы, приключения, 2006) [BDRip- ...
  • Коллекционер 2 / The Collection (Маркус Данстэн, ужасы, боевик, триллер, 20 ...
  • Франкенвини / Frankenweenie (Тим Бёртон, мультфильм, ужасы, фантастика, ком ...
  • Коллекционер 2 / The Collection (Маркус Данстэн, ужасы, боевик, триллер, 20 ...
  • Сайлент Хилл / Silent Hill (Кристоф Ганс, ужасы, триллер, драма, 2006) [BDR ...
  • [Трейлер] Сайлент Хилл 2 / Silent Hill: Revelation 3D (Майкл Дж. Бассетт, ...
  • [Трейлер] Сайлент Хилл 2 / Silent Hill: Revelation 3D (Майкл Дж. Бассетт, ...
  • Информация
    Посетители, находящиеся в группе Гости, не могут оставлять комментарии к данной публикации.